找回密码

蓝光电影网

查看: 348|回复: 8

[2160p-WEB] 婚姻故事 Marriage.Story.2019.2160p.NF.WEBRip.DDP5.1.x264-NTb 57.17GB

[复制链接]

 成长值: 24580

发表于 3 天前 | 显示全部楼层 |阅读模式
婚姻故事 Marriage.Story.2019.2160p.NF.WEBRip.DDP5.1.x264-NTb 57.17GB-1.png

译  名 婚姻故事
片  名 Marriage Story
年  代 2019
产  地 英国 / 美国
类  别 剧情 / 爱情
语  言 英语
上映日期 2019-08-29(威尼斯电影节) / 2019-12-06(美国) / 2020(中国大陆)
IMDb评分  8.0/10 from 166175 users
IMDb链接  https://www.imdb.com/title/tt7653254
豆瓣评分 8.6/10 from 133512 users
豆瓣链接 https://movie.douban.com/subject/27202818/
片  长 136分钟
导  演 诺亚·鲍姆巴赫 Noah Baumbach
编  剧 诺亚·鲍姆巴赫 Noah Baumbach
主  演 斯嘉丽·约翰逊 Scarlett Johansson
       亚当·德赖弗 Adam Driver
       劳拉·邓恩 Laura Dern
       艾奇·罗伯逊 Azhy Robertson
       梅里特·韦弗 Merritt Wever
       阿伦·阿尔达 Alan Alda
       朱丽·哈基提 Julie Hagerty
       雷·利奥塔 Ray Liotta
       马克·奥布莱恩 Mark O'Brien
       华莱士·肖恩 Wallace Shawn
       凯尔·柏海莫 Kyle Bornheimer
       米奇·萨姆纳 Mickey Sumner
       马修·马希尔 Matthew Maher
       罗伯特·斯密戈尔 Robert Smigel
       艾登·梅耶里 Ayden Mayeri
       布鲁克·布鲁姆 Brooke Bloom
       玛莎·凯莉 Martha Kelly
       阿尔伯特·琼斯 Albert Jones
       汉娜·邓恩 Hannah Dunne
       桑德拉·罗斯科 Sandra Rosko
       麦金利·贝尔彻 McKinley Belcher III
       戈登·格里克 Gideon Glick
       马修·希尔 Matthew Shear
       阿米尔·塔莱 Amir Talai
       萨拉·琼斯 Sarah Jones
       文尼·希伯 Vinny Chhibber
       胡安·阿方索 Juan Alfonso
       洛蕾塔·谢诺斯基 Loretta Shenosky
       Tunde Adebimpe


标  签 婚姻 | 爱情 | 家庭 | 美国 | 剧情 | 2019 | 女性 | Netflix

简  介  

  讲述了结婚多年并育有一子的戏剧导演查理和女演员妮可因工作分居而不得不走向离婚,在这场为了争夺抚养权的离婚拉锯战中,关于爱情、婚姻和家庭真实感人的细枝末节牵动人心。两人的关系又将何去何从?

获奖情况  

  第92届奥斯卡金像奖(2020)
  最佳影片(提名) 大卫·海曼 / 诺亚·鲍姆巴赫
  最佳男主角(提名) 亚当·德赖弗
  最佳女主角(提名) 斯嘉丽·约翰逊
  最佳女配角 劳拉·邓恩
  最佳原创剧本(提名) 诺亚·鲍姆巴赫
  最佳原创配乐(提名) 兰迪·纽曼

  第76届威尼斯电影节(2019)
  主竞赛单元 金狮奖 (提名) 诺亚·鲍姆巴赫

  第77届金球奖(2020)
  电影类 最佳剧情片(提名)
  电影类 剧情片最佳男主角(提名) 亚当·德赖弗
  电影类 剧情片最佳女主角(提名) 斯嘉丽·约翰逊
  电影类 最佳女配角 劳拉·邓恩
  电影类 最佳编剧(提名) 诺亚·鲍姆巴赫
  电影类 最佳原创配乐(提名) 兰迪·纽曼

  第73届英国电影学院奖(2020)
  电影奖 最佳男主角(提名) 亚当·德赖弗
  电影奖 最佳女主角(提名) 斯嘉丽·约翰逊
  电影奖 最佳女配角 劳拉·邓恩
  电影奖 最佳原创剧本(提名) 诺亚·鲍姆巴赫
  电影奖 最佳选角(提名)

  第44届多伦多国际电影节(2019)
  观众选择奖(提名) 诺亚·鲍姆巴赫

  第26届美国演员工会奖(2020)
  电影奖 最佳男主角(提名) 亚当·德赖弗
  电影奖 最佳女主角(提名) 斯嘉丽·约翰逊
  电影奖 最佳女配角 劳拉·邓恩

  第72届美国编剧工会奖(2020)
  电影奖 最佳原创剧本(提名) 诺亚·鲍姆巴赫

  第31届美国制片人工会奖(2020)
  最佳电影制片人奖(提名)

  第70届美国剪辑工会奖(2020)
  剧情片最佳剪辑(提名) 詹妮弗·拉梅

  第85届纽约影评人协会奖(2019)
  最佳女配角 劳拉·邓恩

  第91届美国国家评论协会奖(2019)
  年度佳片

  第25届美国评论家选择电影奖(2020)
  最佳影片(提名)
  最佳导演(提名) 诺亚·鲍姆巴赫
  最佳男主角(提名) 亚当·德赖弗
  最佳女主角(提名) 斯嘉丽·约翰逊
  最佳女配角 劳拉·邓恩
  最佳群戏(提名)
  最佳原创剧本(提名) 诺亚·鲍姆巴赫
  最佳配乐(提名)

  第35届美国独立精神奖(2020)
  最佳影片(提名)
  最佳剧本 诺亚·鲍姆巴赫
  罗伯特·奥特曼电影奖

  第22届英国独立电影奖(2019)
  最佳外国独立电影(提名)

  第29届哥谭独立电影奖(2019)
  最佳影片
  最佳男演员 亚当·德赖弗
  最佳剧本 诺亚·鲍姆巴赫

  第20届美国电影学会奖(2019)
  年度佳片

  第24届金卫星奖(2020)
  电影部门 最佳剧情片(提名)
  电影部门 最佳导演(提名) 诺亚·鲍姆巴赫
  电影部门 剧情片最佳男主角(提名) 亚当·德赖弗
  电影部门 剧情片最佳女主角 斯嘉丽·约翰逊
  电影部门 最佳女配角(提名) 劳拉·邓恩
  电影部门 最佳原创剧本 诺亚·鲍姆巴赫
  电影部门 最佳原创配乐(提名)
  电影部门 最佳剪辑(提名)

  第23届好莱坞电影奖(2019)
  年度女配角 劳拉·邓恩
  年度配乐 兰迪·纽曼

  第54届美国国家影评人协会奖(2020)
  最佳男主角(提名) 亚当·德赖弗
  最佳女配角 劳拉·邓恩

  第18届华盛顿影评人协会奖(2019)
  最佳男主角 亚当·德赖弗
  最佳原创剧本 诺亚·鲍姆巴赫

  第40届伦敦影评人协会奖(2020)
  年度电影(提名)
  年度编剧(提名) 诺亚·鲍姆巴赫
  年度男主角(提名) 亚当·德赖弗
  年度女主角(提名) 斯嘉丽·约翰逊
  年度女配角(提名) 劳拉·邓恩

  第40届波士顿影评人协会奖(2019)
  最佳女配角 劳拉·邓恩
  最佳剧本(提名) 诺亚·鲍姆巴赫

  第45届洛杉矶影评人协会奖(2019)
  最佳男主角(提名) 亚当·德赖弗
  最佳剧本 诺亚·鲍姆巴赫

  第32届芝加哥影评人协会奖(2019)
  最佳影片(提名)
  最佳导演(提名) 诺亚·鲍姆巴赫
  最佳男主角(提名) 亚当·德赖弗
  最佳女主角(提名) 斯嘉丽·约翰逊
  最佳女配角(提名) 劳拉·邓恩
  最佳原创剧本(提名) 诺亚·鲍姆巴赫
  最佳原创配乐(提名) 兰迪·纽曼

  第13届底特律影评人协会奖(2019)
  最佳男主角 亚当·德赖弗
  最佳女主角 斯嘉丽·约翰逊
  最佳女配角 劳拉·邓恩
  最佳剧本 诺亚·鲍姆巴赫

  第4届亚特兰大影评人协会奖(2019)
  十佳影片
  最佳男主角 亚当·德赖弗
  最佳女配角 劳拉·邓恩

  第23届美国在线影评人协会奖(2020)
  最佳影片(提名)
  最佳男主角 亚当·德赖弗
  最佳女主角(提名) 斯嘉丽·约翰逊
  最佳女配角(提名) 劳拉·邓恩
  最佳原创剧本(提名) 诺亚·鲍姆巴赫
  最佳原创配乐(提名) 兰迪·纽曼

  第6届豆瓣电影年度榜单(2019)
  年度冷门佳片(提名)
  评分最高的爱情片
  1. Video
  2. ID                                       : 1
  3. Format                                   : AVC
  4. Format/Info                              : Advanced Video Codec
  5. Format profile                           : High@L4
  6. Format settings                          : CABAC / 4 Ref Frames
  7. Format settings, CABAC                   : Yes
  8. Format settings, Reference frames        : 4 frames
  9. Codec ID                                 : V_MPEG4/ISO/AVC
  10. Duration                                 : 2 h 16 min
  11. Bit rate                                 : 59.1 Mb/s
  12. Width                                    : 3 600 pixels
  13. Height                                   : 2 160 pixels
  14. Display aspect ratio                     : 5:3
  15. Frame rate mode                          : Constant
  16. Frame rate                               : 24.000 FPS
  17. Color space                              : YUV
  18. Chroma subsampling                       : 4:2:0
  19. Bit depth                                : 8 bits
  20. Scan type                                : Progressive
  21. Bits/(Pixel*Frame)                       : 0.317
  22. Stream size                              : 56.6 GiB (99%)
  23. Writing library                          : x264 core 159 r2991+50 29469ee t_mod_New [High@L4 X86_64]
  24. Encoding settings                        : cabac=1 / ref=1 / deblock=1:-3:-3 / analyse=0x3:0x133 / me=umh / subme=10 / psy=1 / fade_compensate=0.00 / psy_rd=1.00:0.00 / mixed_ref=0 / me_range=48 / chroma_me=1 / trellis=2 / 8x8dct=1 / cqm=0 / deadzone=21,11 / fast_pskip=1 / chroma_qp_offset=-2 / threads=36 / lookahead_threads=6 / sliced_threads=0 / nr=0 / decimate=1 / interlaced=0 / bluray_compat=0 / constrained_intra=0 / fgo=0 / bframes=8 / b_pyramid=2 / b_adapt=2 / b_bias=0 / direct=3 / weightb=1 / open_gop=0 / weightp=2 / keyint=250 / keyint_min=24 / scenecut=40 / intra_refresh=0 / rc=crf / mbtree=0 / crf=20.0000 / qcomp=0.60 / qpmin=0:0:0 / qpmax=69:69:69 / qpstep=4 / ip_ratio=1.30 / pb_ratio=1.20 / aq=3:0.80 / aq-sensitivity=10.00 / aq-factor=1.00:1.00:1.00 / aq2=0 / aq3=0
  25. Language                                 : English
  26. Default                                  : Yes
  27. Forced                                   : No

  28. Audio
  29. ID                                       : 2
  30. Format                                   : E-AC-3
  31. Format/Info                              : Enhanced AC-3
  32. Commercial name                          : Dolby Digital Plus
  33. Codec ID                                 : A_EAC3
  34. Duration                                 : 2 h 16 min
  35. Bit rate mode                            : Constant
  36. Bit rate                                 : 640 kb/s
  37. Channel(s)                               : 6 channels
  38. Channel layout                           : L R C LFE Ls Rs
  39. Sampling rate                            : 48.0 kHz
  40. Frame rate                               : 31.250 FPS (1536 SPF)
  41. Compression mode                         : Lossy
  42. Stream size                              : 627 MiB (1%)
  43. Title                                    : English
  44. Language                                 : English
  45. Service kind                             : Complete Main
  46. Default                                  : Yes
  47. Forced                                   : No

  48. Text #1
  49. ID                                       : 3
  50. Format                                   : UTF-8
  51. Codec ID                                 : S_TEXT/UTF8
  52. Codec ID/Info                            : UTF-8 Plain Text
  53. Duration                                 : 2 h 11 min
  54. Bit rate                                 : 103 b/s
  55. Count of elements                        : 2796
  56. Stream size                              : 100.0 KiB (0%)
  57. Title                                    : SDH
  58. Language                                 : English
  59. Default                                  : No
  60. Forced                                   : No

  61. Text #2
  62. ID                                       : 4
  63. Format                                   : UTF-8
  64. Codec ID                                 : S_TEXT/UTF8
  65. Codec ID/Info                            : UTF-8 Plain Text
  66. Duration                                 : 2 h 16 min
  67. Bit rate                                 : 145 b/s
  68. Count of elements                        : 2446
  69. Stream size                              : 145 KiB (0%)
  70. Language                                 : Arabic
  71. Default                                  : No
  72. Forced                                   : No

  73. Text #3
  74. ID                                       : 5
  75. Format                                   : UTF-8
  76. Codec ID                                 : S_TEXT/UTF8
  77. Codec ID/Info                            : UTF-8 Plain Text
  78. Duration                                 : 2 h 16 min
  79. Bit rate                                 : 75 b/s
  80. Count of elements                        : 2446
  81. Stream size                              : 74.9 KiB (0%)
  82. Language                                 : Czech
  83. Default                                  : No
  84. Forced                                   : No

  85. Text #4
  86. ID                                       : 6
  87. Format                                   : UTF-8
  88. Codec ID                                 : S_TEXT/UTF8
  89. Codec ID/Info                            : UTF-8 Plain Text
  90. Duration                                 : 2 h 16 min
  91. Bit rate                                 : 80 b/s
  92. Count of elements                        : 2439
  93. Stream size                              : 79.9 KiB (0%)
  94. Language                                 : Danish
  95. Default                                  : No
  96. Forced                                   : No

  97. Text #5
  98. ID                                       : 7
  99. Format                                   : UTF-8
  100. Codec ID                                 : S_TEXT/UTF8
  101. Codec ID/Info                            : UTF-8 Plain Text
  102. Duration                                 : 2 h 16 min
  103. Bit rate                                 : 75 b/s
  104. Count of elements                        : 2206
  105. Stream size                              : 75.3 KiB (0%)
  106. Language                                 : German
  107. Default                                  : No
  108. Forced                                   : No

  109. Text #6
  110. ID                                       : 8
  111. Format                                   : UTF-8
  112. Codec ID                                 : S_TEXT/UTF8
  113. Codec ID/Info                            : UTF-8 Plain Text
  114. Duration                                 : 2 h 16 min
  115. Bit rate                                 : 133 b/s
  116. Count of elements                        : 2446
  117. Stream size                              : 133 KiB (0%)
  118. Language                                 : Greek
  119. Default                                  : No
  120. Forced                                   : No

  121. Text #7
  122. ID                                       : 9
  123. Format                                   : UTF-8
  124. Codec ID                                 : S_TEXT/UTF8
  125. Codec ID/Info                            : UTF-8 Plain Text
  126. Duration                                 : 2 h 16 min
  127. Bit rate                                 : 79 b/s
  128. Count of elements                        : 2322
  129. Stream size                              : 78.9 KiB (0%)
  130. Language                                 : Spanish
  131. Default                                  : No
  132. Forced                                   : No

  133. Text #8
  134. ID                                       : 10
  135. Format                                   : UTF-8
  136. Codec ID                                 : S_TEXT/UTF8
  137. Codec ID/Info                            : UTF-8 Plain Text
  138. Duration                                 : 2 h 15 min
  139. Bit rate                                 : 76 b/s
  140. Count of elements                        : 2388
  141. Stream size                              : 75.9 KiB (0%)
  142. Title                                    : European
  143. Language                                 : Spanish
  144. Default                                  : No
  145. Forced                                   : No

  146. Text #9
  147. ID                                       : 11
  148. Format                                   : UTF-8
  149. Codec ID                                 : S_TEXT/UTF8
  150. Codec ID/Info                            : UTF-8 Plain Text
  151. Duration                                 : 2 h 16 min
  152. Bit rate                                 : 74 b/s
  153. Count of elements                        : 2442
  154. Stream size                              : 74.1 KiB (0%)
  155. Language                                 : Finnish
  156. Default                                  : No
  157. Forced                                   : No

  158. Text #10
  159. ID                                       : 12
  160. Format                                   : UTF-8
  161. Codec ID                                 : S_TEXT/UTF8
  162. Codec ID/Info                            : UTF-8 Plain Text
  163. Duration                                 : 2 h 15 min
  164. Bit rate                                 : 78 b/s
  165. Count of elements                        : 2421
  166. Stream size                              : 77.9 KiB (0%)
  167. Language                                 : French
  168. Default                                  : No
  169. Forced                                   : No

  170. Text #11
  171. ID                                       : 13
  172. Format                                   : UTF-8
  173. Codec ID                                 : S_TEXT/UTF8
  174. Codec ID/Info                            : UTF-8 Plain Text
  175. Duration                                 : 2 h 16 min
  176. Bit rate                                 : 120 b/s
  177. Count of elements                        : 2446
  178. Stream size                              : 120 KiB (0%)
  179. Language                                 : Hebrew
  180. Default                                  : No
  181. Forced                                   : No

  182. Text #12
  183. ID                                       : 14
  184. Format                                   : UTF-8
  185. Codec ID                                 : S_TEXT/UTF8
  186. Codec ID/Info                            : UTF-8 Plain Text
  187. Duration                                 : 2 h 16 min
  188. Bit rate                                 : 87 b/s
  189. Count of elements                        : 2445
  190. Stream size                              : 87.6 KiB (0%)
  191. Language                                 : Hungarian
  192. Default                                  : No
  193. Forced                                   : No

  194. Text #13
  195. ID                                       : 15
  196. Format                                   : UTF-8
  197. Codec ID                                 : S_TEXT/UTF8
  198. Codec ID/Info                            : UTF-8 Plain Text
  199. Duration                                 : 2 h 15 min
  200. Bit rate                                 : 82 b/s
  201. Count of elements                        : 2452
  202. Stream size                              : 82.2 KiB (0%)
  203. Language                                 : Indonesian
  204. Default                                  : No
  205. Forced                                   : No

  206. Text #14
  207. ID                                       : 16
  208. Format                                   : UTF-8
  209. Codec ID                                 : S_TEXT/UTF8
  210. Codec ID/Info                            : UTF-8 Plain Text
  211. Duration                                 : 2 h 16 min
  212. Bit rate                                 : 78 b/s
  213. Count of elements                        : 2426
  214. Stream size                              : 78.8 KiB (0%)
  215. Language                                 : Italian
  216. Default                                  : No
  217. Forced                                   : No

  218. Text #15
  219. ID                                       : 17
  220. Format                                   : UTF-8
  221. Codec ID                                 : S_TEXT/UTF8
  222. Codec ID/Info                            : UTF-8 Plain Text
  223. Duration                                 : 2 h 16 min
  224. Bit rate                                 : 68 b/s
  225. Count of elements                        : 2499
  226. Stream size                              : 68.0 KiB (0%)
  227. Language                                 : Japanese
  228. Default                                  : No
  229. Forced                                   : No

  230. Text #16
  231. ID                                       : 18
  232. Format                                   : UTF-8
  233. Codec ID                                 : S_TEXT/UTF8
  234. Codec ID/Info                            : UTF-8 Plain Text
  235. Duration                                 : 2 h 16 min
  236. Bit rate                                 : 88 b/s
  237. Count of elements                        : 2520
  238. Stream size                              : 87.7 KiB (0%)
  239. Language                                 : Korean
  240. Default                                  : No
  241. Forced                                   : No

  242. Text #17
  243. ID                                       : 19
  244. Format                                   : UTF-8
  245. Codec ID                                 : S_TEXT/UTF8
  246. Codec ID/Info                            : UTF-8 Plain Text
  247. Duration                                 : 2 h 16 min
  248. Bit rate                                 : 80 b/s
  249. Count of elements                        : 2437
  250. Stream size                              : 80.1 KiB (0%)
  251. Language                                 : Norwegian Bokmal
  252. Default                                  : No
  253. Forced                                   : No

  254. Text #18
  255. ID                                       : 20
  256. Format                                   : UTF-8
  257. Codec ID                                 : S_TEXT/UTF8
  258. Codec ID/Info                            : UTF-8 Plain Text
  259. Duration                                 : 2 h 16 min
  260. Bit rate                                 : 75 b/s
  261. Count of elements                        : 2395
  262. Stream size                              : 74.8 KiB (0%)
  263. Language                                 : Dutch
  264. Default                                  : No
  265. Forced                                   : No

  266. Text #19
  267. ID                                       : 21
  268. Format                                   : UTF-8
  269. Codec ID                                 : S_TEXT/UTF8
  270. Codec ID/Info                            : UTF-8 Plain Text
  271. Duration                                 : 2 h 16 min
  272. Bit rate                                 : 77 b/s
  273. Count of elements                        : 2408
  274. Stream size                              : 77.0 KiB (0%)
  275. Language                                 : Polish
  276. Default                                  : No
  277. Forced                                   : No

  278. Text #20
  279. ID                                       : 22
  280. Format                                   : UTF-8
  281. Codec ID                                 : S_TEXT/UTF8
  282. Codec ID/Info                            : UTF-8 Plain Text
  283. Duration                                 : 2 h 15 min
  284. Bit rate                                 : 81 b/s
  285. Count of elements                        : 2467
  286. Stream size                              : 80.9 KiB (0%)
  287. Language                                 : Portuguese
  288. Default                                  : No
  289. Forced                                   : No

  290. Text #21
  291. ID                                       : 23
  292. Format                                   : UTF-8
  293. Codec ID                                 : S_TEXT/UTF8
  294. Codec ID/Info                            : UTF-8 Plain Text
  295. Duration                                 : 2 h 15 min
  296. Bit rate                                 : 74 b/s
  297. Count of elements                        : 2380
  298. Stream size                              : 74.7 KiB (0%)
  299. Title                                    : Brazilian
  300. Language                                 : Portuguese
  301. Default                                  : No
  302. Forced                                   : No

  303. Text #22
  304. ID                                       : 24
  305. Format                                   : UTF-8
  306. Codec ID                                 : S_TEXT/UTF8
  307. Codec ID/Info                            : UTF-8 Plain Text
  308. Duration                                 : 2 h 12 min
  309. Bit rate                                 : 84 b/s
  310. Count of elements                        : 2491
  311. Stream size                              : 81.8 KiB (0%)
  312. Language                                 : Romanian
  313. Default                                  : No
  314. Forced                                   : No

  315. Text #23
  316. ID                                       : 25
  317. Format                                   : UTF-8
  318. Codec ID                                 : S_TEXT/UTF8
  319. Codec ID/Info                            : UTF-8 Plain Text
  320. Duration                                 : 2 h 16 min
  321. Bit rate                                 : 132 b/s
  322. Count of elements                        : 2417
  323. Stream size                              : 132 KiB (0%)
  324. Language                                 : Russian
  325. Default                                  : No
  326. Forced                                   : No

  327. Text #24
  328. ID                                       : 26
  329. Format                                   : UTF-8
  330. Codec ID                                 : S_TEXT/UTF8
  331. Codec ID/Info                            : UTF-8 Plain Text
  332. Duration                                 : 2 h 16 min
  333. Bit rate                                 : 80 b/s
  334. Count of elements                        : 2446
  335. Stream size                              : 80.4 KiB (0%)
  336. Language                                 : Swedish
  337. Default                                  : No
  338. Forced                                   : No

  339. Text #25
  340. ID                                       : 27
  341. Format                                   : UTF-8
  342. Codec ID                                 : S_TEXT/UTF8
  343. Codec ID/Info                            : UTF-8 Plain Text
  344. Duration                                 : 2 h 15 min
  345. Bit rate                                 : 215 b/s
  346. Count of elements                        : 2587
  347. Stream size                              : 214 KiB (0%)
  348. Language                                 : Thai
  349. Default                                  : No
  350. Forced                                   : No

  351. Text #26
  352. ID                                       : 28
  353. Format                                   : UTF-8
  354. Codec ID                                 : S_TEXT/UTF8
  355. Codec ID/Info                            : UTF-8 Plain Text
  356. Duration                                 : 2 h 16 min
  357. Bit rate                                 : 81 b/s
  358. Count of elements                        : 2446
  359. Stream size                              : 81.1 KiB (0%)
  360. Language                                 : Turkish
  361. Default                                  : No
  362. Forced                                   : No

  363. Text #27
  364. ID                                       : 29
  365. Format                                   : UTF-8
  366. Codec ID                                 : S_TEXT/UTF8
  367. Codec ID/Info                            : UTF-8 Plain Text
  368. Duration                                 : 2 h 11 min
  369. Bit rate                                 : 113 b/s
  370. Count of elements                        : 2445
  371. Stream size                              : 109 KiB (0%)
  372. Language                                 : Vietnamese
  373. Default                                  : No
  374. Forced                                   : No

  375. Text #28
  376. ID                                       : 30
  377. Format                                   : UTF-8
  378. Codec ID                                 : S_TEXT/UTF8
  379. Codec ID/Info                            : UTF-8 Plain Text
  380. Duration                                 : 2 h 16 min
  381. Bit rate                                 : 78 b/s
  382. Count of elements                        : 2446
  383. Stream size                              : 78.0 KiB (0%)
  384. Title                                    : Simplified
  385. Language                                 : Chinese
  386. Default                                  : No
  387. Forced                                   : No

  388. Text #29
  389. ID                                       : 31
  390. Format                                   : UTF-8
  391. Codec ID                                 : S_TEXT/UTF8
  392. Codec ID/Info                            : UTF-8 Plain Text
  393. Duration                                 : 2 h 16 min
  394. Bit rate                                 : 70 b/s
  395. Count of elements                        : 2523
  396. Stream size                              : 70.3 KiB (0%)
  397. Title                                    : Traditional
  398. Language                                 : Chinese
  399. Default                                  : No
  400. Forced                                   : No
复制代码

婚姻故事 Marriage.Story.2019.2160p.NF.WEBRip.DDP5.1.x264-NTb 57.17GB-2.png 婚姻故事 Marriage.Story.2019.2160p.NF.WEBRip.DDP5.1.x264-NTb 57.17GB-3.png 婚姻故事 Marriage.Story.2019.2160p.NF.WEBRip.DDP5.1.x264-NTb 57.17GB-4.png







回复

使用道具 举报

 成长值: 1840

发表于 3 天前 | 显示全部楼层
楼主发贴辛苦了,谢谢楼主分享!我觉得蓝光电影网是注册对了!
回复 支持 反对

使用道具 举报

发表于 前天 03:09 | 显示全部楼层
楼主发贴辛苦了,谢谢楼主分享!
回复 支持 反对

使用道具 举报

发表于 前天 07:04 | 显示全部楼层

其实我一直觉得楼主的品味不错!呵呵!蓝光电影网太棒了!
回复 支持 反对

使用道具 举报

发表于 前天 15:06 | 显示全部楼层
太感谢了哈哈哈哈哈
回复 支持 反对

使用道具 举报

发表于 前天 15:26 | 显示全部楼层
这片子演技报表啊!
回复 支持 反对

使用道具 举报

发表于 昨天 10:07 | 显示全部楼层
支持寡姐,感谢楼主分享资源,蓝光电影网棒棒哒!
回复 支持 反对

使用道具 举报

发表于 昨天 11:32 | 显示全部楼层
这个网站太酷了 感谢
回复 支持 反对

使用道具 举报

 成长值: 40

发表于 昨天 16:08 | 显示全部楼层
谢谢楼主分享,太好了
回复 支持 反对

使用道具 举报

懒得打字嘛,点击右侧快捷回复 【右侧内容,后台自定义】
您需要登录后才可以回帖 登录 | 立即加入

本版积分规则

现在加入蓝光电影网,注册一个账号
上个主题 下个主题 快速回复 收藏帖子 返回列表 客服中心 搜索

手机版|小黑屋| 蓝光电影网 |网站地图 

Copyright © 2015-2019 Comsenz Inc.  Template by 蓝光电影论坛 All Rights Reserved.

Powered by 蓝光电影网 X3.4

特别声明:本站所有资源均由网上收集而来,版权归原影音公司所有,如果侵犯了你的权益,请通知我们,我们会及时删除侵权内容.

快速回复 返回顶部 返回列表