找回密码

蓝光电影网

查看: 2290|回复: 34

[10bit.HDR] 冰雪奇缘2 Frozen.II.2019.2160p.UHD.BluRay.X265.10bit.HDR.TrueHD.7.1.Atmos-TERMiNAL 11.12GB

[复制链接]

 成长值: 27925

发表于 2020-2-14 19:03:06 | 显示全部楼层 |阅读模式
冰雪奇缘2 Frozen.II.2019.2160p.UHD.BluRay.X265.10bit.HDR.TrueHD.7.1.Atmos-TERMiNAL 11.12GB-1.png

译  名 冰雪奇缘2 / Frozen 2 / 魔雪奇缘2(港)
片  名 Frozen II
年  代 2019
产  地 美国
类  别 喜剧 / 动画 / 歌舞 / 冒险
语  言 英语
上映日期 2019-11-22(美国/中国大陆)
IMDb评分  7.2/10 from 65728 users
IMDb链接  https://www.imdb.com/title/tt4520988
豆瓣评分 7.2/10 from 192944 users
豆瓣链接 https://movie.douban.com/subject/25887288/
片  长 104分钟
导  演 克里斯·巴克 Chris Buck / 珍妮弗·李 Jennifer Lee
编  剧 珍妮弗·李 Jennifer Lee / 克里斯·巴克 Chris Buck / 马克·史密斯 Marc Smith / 克里斯汀·安德森·洛佩兹 Kristen Anderson-Lopez / 罗伯特·洛佩兹 Robert Lopez
主  演 克里斯汀·贝尔 Kristen Bell
       伊迪娜·门泽尔 Idina Menzel
       乔什·加德 Josh Gad
       乔纳森·格罗夫 Jonathan Groff
       杰森·雷特 Jason Ritter
       埃文·蕾切尔·伍德 Evan Rachel Wood
       斯特林·K·布朗 Sterling K. Brown
       玛莎·普林顿 Martha Plimpton
       圣蒂诺·方塔纳 Santino Fontana
       阿尔弗雷德·莫里纳 Alfred Molina
       瑞秋·马休斯 Rachel Matthews


标  签 迪士尼 | 动画 | 童话 | 美国 | 音乐 | 2019 | 奇幻 | 魔幻

简  介  

  2013年迪士尼《冰雪奇缘》续集。安娜、艾莎一伙人将深入神秘魔法森林,发现到艾伦戴尔王国长久以来深藏的秘密,一个有着风火水土元素的魔法国度,以及艾莎魔法来源的真相。

获奖情况  

  第92届奥斯卡金像奖(2020)
  最佳原创歌曲(提名) 克里斯汀·安德森·洛佩兹 / 罗伯特·洛佩兹

  第77届金球奖(2020)
  电影类 最佳动画长片(提名)
  电影类 最佳原创歌曲(提名)

  第73届英国电影学院奖(2020)
  电影奖 最佳动画片(提名)

  第47届动画安妮奖(2020)
  最佳动画长片(提名)
  最佳导演(提名) 克里斯·巴克 / 珍妮弗·李
  最佳编剧(提名) 珍妮弗·李
  最佳配音 乔什·加德
  最佳配乐(提名) 弗罗德·弗杰尔海姆 / 克里斯汀·安德森·洛佩兹 / 罗伯特·洛佩兹 / 克里斯托弗·贝克
  最佳动画角色(提名)
  最佳角色设计(提名)
  最佳动画效果

  第31届美国制片人工会奖(2020)
  最佳动画片制片人奖(提名)

  第70届美国剪辑工会奖(2020)
  动画片最佳剪辑(提名) 杰夫·德拉海姆

  第24届美国艺术指导工会奖(2020)
  电影奖 最佳动画电影艺术指导(提名) Michael Giaimo

  第67届美国音效剪辑协会奖(2020)
  金卷轴奖 最佳动画片音效剪辑(提名)
  金卷轴奖 最佳音乐片音乐剪辑(提名)

  第18届美国视觉效果协会奖(2020)
  最佳动画电影视觉效果(提名)
  最佳动画电影CG动画角色(提名)
  最佳动画电影CG背景(提名)
  最佳动画电影模拟动画效果

  第56届美国声音效果协会奖(2020)
  动画电影最佳音效(提名)

  第25届美国评论家选择电影奖(2020)
  最佳动画片(提名)
  最佳歌曲(提名)

  第24届金卫星奖(2020)
  电影部门 最佳原创歌曲(提名)

  第32届芝加哥影评人协会奖(2019)
  最佳动画片(提名)

  第23届美国在线影评人协会奖(2020)
  最佳动画片(提名)

  1. Video
  2. ID                                       : 1
  3. Format                                   : HEVC
  4. Format/Info                              : High Efficiency Video Coding
  5. Format profile                           : Main 10@L5.1@High
  6. HDR format                               : SMPTE ST 2086, HDR10 compatible
  7. Codec ID                                 : V_MPEGH/ISO/HEVC
  8. Duration                                 : 1 h 43 min
  9. Bit rate                                 : 5 998 kb/s
  10. Width                                    : 3 840 pixels
  11. Height                                   : 1 608 pixels
  12. Display aspect ratio                     : 2.40:1
  13. Frame rate mode                          : Constant
  14. Frame rate                               : 23.976 (24000/1001) FPS
  15. Color space                              : YUV
  16. Chroma subsampling                       : 4:2:0 (Type 2)
  17. Bit depth                                : 10 bits
  18. Bits/(Pixel*Frame)                       : 0.041
  19. Stream size                              : 4.32 GiB (39%)
  20. Writing library                          : x265 3.2+23-52135ffd9bcd:[Windows][GCC 9.2.1][64 bit] 10bit
  21. Encoding settings                        : cpuid=1176575 / frame-threads=5 / numa-pools=36 / wpp / no-pmode / no-pme / no-psnr / no-ssim / log-level=2 / input-csp=1 / input-res=3840x1608 / interlace=0 / total-frames=148499 / level-idc=51 / high-tier=1 / uhd-bd=0 / ref=4 / no-allow-non-conformance / repeat-headers / annexb / aud / hrd / info / hash=0 / no-temporal-layers / no-open-gop / min-keyint=1 / keyint=24 / gop-lookahead=0 / bframes=4 / b-adapt=2 / b-pyramid / bframe-bias=0 / rc-lookahead=25 / lookahead-slices=4 / scenecut=40 / hist-scenecut=0 / radl=0 / no-splice / no-intra-refresh / ctu=64 / min-cu-size=8 / rect / no-amp / max-tu-size=32 / tu-inter-depth=1 / tu-intra-depth=1 / limit-tu=0 / rdoq-level=2 / dynamic-rd=0.00 / no-ssim-rd / signhide / no-tskip / nr-intra=0 / nr-inter=0 / no-constrained-intra / no-strong-intra-smoothing / max-merge=3 / limit-refs=3 / limit-modes / me=3 / subme=3 / merange=57 / temporal-mvp / no-frame-dup / no-hme / weightp / no-weightb / no-analyze-src-pics / deblock=-3:-3 / no-sao / no-sao-non-deblock / rd=4 / selective-sao=0 / no-early-skip / rskip / no-fast-intra / no-tskip-fast / no-cu-lossless / no-b-intra / no-splitrd-skip / rdpenalty=0 / psy-rd=2.00 / psy-rdoq=1.00 / no-rd-refine / no-lossless / cbqpoffs=0 / crqpoffs=0 / rc=crf / crf=17.0 / qcomp=0.60 / qpstep=4 / stats-write=0 / stats-read=0 / vbv-maxrate=160000 / vbv-bufsize=160000 / vbv-init=0.9 / crf-max=0.0 / crf-min=0.0 / ipratio=1.40 / pbratio=1.30 / aq-mode=1 / aq-strength=1.00 / cutree / zone-count=0 / no-strict-cbr / qg-size=32 / no-rc-grain / qpmax=69 / qpmin=0 / no-const-vbv / sar=1 / overscan=0 / videoformat=5 / range=0 / colorprim=9 / transfer=16 / colormatrix=9 / chromaloc=1 / chromaloc-top=2 / chromaloc-bottom=2 / display-window=0 / master-display=G(13250,34500)B(7500,3000)R(34000,16000)WP(15635,16450)L(10000000,1) / cll=0,0 / min-luma=0 / max-luma=1023 / log2-max-poc-lsb=8 / vui-timing-info / vui-hrd-info / slices=1 / no-opt-qp-pps / no-opt-ref-list-length-pps / no-multi-pass-opt-rps / scenecut-bias=0.05 / hist-threshold=0.01 / no-opt-cu-delta-qp / no-aq-motion / hdr / hdr-opt / no-dhdr10-opt / no-idr-recovery-sei / analysis-reuse-level=5 / scale-factor=0 / refine-intra=0 / refine-inter=0 / refine-mv=1 / refine-ctu-distortion=0 / no-limit-sao / ctu-info=0 / no-lowpass-dct / refine-analysis-type=0 / copy-pic=1 / max-ausize-factor=1.0 / no-dynamic-refine / no-single-sei / no-hevc-aq / no-svt / no-field / qp-adaptation-range=1.00 / no-scenecut-aware-qp
  22. Default                                  : Yes
  23. Forced                                   : No
  24. Color range                              : Limited
  25. Color primaries                          : BT.2020
  26. Transfer characteristics                 : PQ
  27. Matrix coefficients                      : BT.2020 non-constant
  28. Mastering display color primaries        : Display P3
  29. Mastering display luminance              : min: 0.0001 cd/m2, max: 1000 cd/m2

  30. Audio #1
  31. ID                                       : 2
  32. Format                                   : MLP FBA 16-ch
  33. Format/Info                              : Meridian Lossless Packing FBA with 16-channel presentation
  34. Commercial name                          : Dolby TrueHD with Dolby Atmos
  35. Codec ID                                 : A_TRUEHD
  36. Duration                                 : 1 h 43 min
  37. Bit rate mode                            : Variable
  38. Bit rate                                 : 8 449 kb/s
  39. Maximum bit rate                         : 10.6 Mb/s
  40. Channel(s)                               : 8 channels
  41. Channel layout                           : L R C LFE Ls Rs Lb Rb
  42. Sampling rate                            : 48.0 kHz
  43. Frame rate                               : 1 200.000 FPS (40 SPF)
  44. Compression mode                         : Lossless
  45. Stream size                              : 6.09 GiB (55%)
  46. Language                                 : English
  47. Default                                  : Yes
  48. Forced                                   : No
  49. Number of dynamic objects                : 13
  50. Bed channel count                        : 1 channel
  51. Bed channel configuration                : LFE

  52. Audio #2
  53. ID                                       : 3
  54. Format                                   : AC-3
  55. Format/Info                              : Audio Coding 3
  56. Commercial name                          : Dolby Digital
  57. Codec ID                                 : A_AC3
  58. Duration                                 : 1 h 43 min
  59. Bit rate mode                            : Constant
  60. Bit rate                                 : 640 kb/s
  61. Channel(s)                               : 6 channels
  62. Channel layout                           : L R C LFE Ls Rs
  63. Sampling rate                            : 48.0 kHz
  64. Frame rate                               : 31.250 FPS (1536 SPF)
  65. Bit depth                                : 16 bits
  66. Compression mode                         : Lossy
  67. Stream size                              : 473 MiB (4%)
  68. Language                                 : English
  69. Service kind                             : Complete Main
  70. Default                                  : No
  71. Forced                                   : No

  72. Text #1
  73. ID                                       : 4
  74. Format                                   : PGS
  75. Muxing mode                              : zlib
  76. Codec ID                                 : S_HDMV/PGS
  77. Codec ID/Info                            : Picture based subtitle format used on BDs/HD-DVDs
  78. Duration                                 : 1 h 43 min
  79. Bit rate                                 : 44.1 kb/s
  80. Count of elements                        : 3878
  81. Stream size                              : 32.5 MiB (0%)
  82. Title                                    : English SDH
  83. Language                                 : English
  84. Default                                  : No
  85. Forced                                   : No

  86. Text #2
  87. ID                                       : 5
  88. Format                                   : PGS
  89. Muxing mode                              : zlib
  90. Codec ID                                 : S_HDMV/PGS
  91. Codec ID/Info                            : Picture based subtitle format used on BDs/HD-DVDs
  92. Duration                                 : 1 h 42 min
  93. Bit rate                                 : 32.5 kb/s
  94. Count of elements                        : 2704
  95. Stream size                              : 23.8 MiB (0%)
  96. Title                                    : French
  97. Language                                 : French
  98. Default                                  : No
  99. Forced                                   : No

  100. Text #3
  101. ID                                       : 6
  102. Format                                   : PGS
  103. Muxing mode                              : zlib
  104. Codec ID                                 : S_HDMV/PGS
  105. Codec ID/Info                            : Picture based subtitle format used on BDs/HD-DVDs
  106. Duration                                 : 1 h 42 min
  107. Bit rate                                 : 32.0 kb/s
  108. Count of elements                        : 2628
  109. Stream size                              : 23.4 MiB (0%)
  110. Title                                    : Spanish
  111. Language                                 : Spanish
  112. Default                                  : No
  113. Forced                                   : No

  114. Text #4
  115. ID                                       : 7
  116. Format                                   : PGS
  117. Muxing mode                              : zlib
  118. Codec ID                                 : S_HDMV/PGS
  119. Codec ID/Info                            : Picture based subtitle format used on BDs/HD-DVDs
  120. Duration                                 : 1 h 42 min
  121. Bit rate                                 : 24.2 kb/s
  122. Count of elements                        : 2529
  123. Stream size                              : 17.7 MiB (0%)
  124. Title                                    : Japanese
  125. Language                                 : Japanese
  126. Default                                  : No
  127. Forced                                   : No

  128. Text #5
  129. ID                                       : 8
  130. Format                                   : PGS
  131. Muxing mode                              : zlib
  132. Codec ID                                 : S_HDMV/PGS
  133. Codec ID/Info                            : Picture based subtitle format used on BDs/HD-DVDs
  134. Duration                                 : 1 h 39 min
  135. Bit rate                                 : 131 kb/s
  136. Count of elements                        : 2254
  137. Stream size                              : 92.7 MiB (1%)
  138. Title                                    : English Lyrics
  139. Language                                 : English
  140. Default                                  : No
  141. Forced                                   : No

  142. Text #6
  143. ID                                       : 9
  144. Format                                   : PGS
  145. Muxing mode                              : zlib
  146. Codec ID                                 : S_HDMV/PGS
  147. Codec ID/Info                            : Picture based subtitle format used on BDs/HD-DVDs
  148. Duration                                 : 1 h 37 min
  149. Bit rate                                 : 39.1 kb/s
  150. Count of elements                        : 1778
  151. Stream size                              : 27.2 MiB (0%)
  152. Title                                    : French
  153. Language                                 : French
  154. Default                                  : No
  155. Forced                                   : No

  156. Text #7
  157. ID                                       : 10
  158. Format                                   : PGS
  159. Muxing mode                              : zlib
  160. Codec ID                                 : S_HDMV/PGS
  161. Codec ID/Info                            : Picture based subtitle format used on BDs/HD-DVDs
  162. Duration                                 : 1 h 37 min
  163. Bit rate                                 : 31.0 kb/s
  164. Count of elements                        : 1687
  165. Stream size                              : 21.5 MiB (0%)
  166. Title                                    : Spanish
  167. Language                                 : Spanish
  168. Default                                  : No
  169. Forced                                   : No

  170. Text #8
  171. ID                                       : 11
  172. Format                                   : PGS
  173. Muxing mode                              : zlib
  174. Codec ID                                 : S_HDMV/PGS
  175. Codec ID/Info                            : Picture based subtitle format used on BDs/HD-DVDs
  176. Duration                                 : 1 h 37 min
  177. Bit rate                                 : 32.7 kb/s
  178. Count of elements                        : 820
  179. Stream size                              : 22.7 MiB (0%)
  180. Title                                    : Japanese
  181. Language                                 : Japanese
  182. Default                                  : No
  183. Forced                                   : No
复制代码
235516ysyse8wn48dxno22.png 235517qic151adpcd8j122.png 235518ebbg2dbsfgmmigb8.png



回复

使用道具 举报

发表于 2020-2-14 19:07:40 | 显示全部楼层

我看不错噢 谢谢楼主!蓝光电影网越来越好!
回复 支持 反对

使用道具 举报

发表于 2020-2-14 19:37:43 | 显示全部楼层
楼主发贴辛苦了,谢谢楼主分享!我觉得蓝光电影网是注册对了!
回复 支持 反对

使用道具 举报

发表于 2020-2-14 20:02:47 | 显示全部楼层
楼主发贴辛苦了,谢谢楼主分享!我觉得蓝光电影网是注册对了!
回复 支持 反对

使用道具 举报

发表于 2020-2-14 20:15:44 | 显示全部楼层

这东西我收了!谢谢楼主!蓝光电影网真好!
回复 支持 反对

使用道具 举报

发表于 2020-2-14 20:17:35 | 显示全部楼层
楼主辛苦了,感谢楼主分享!蓝光电影网太棒了吧!
回复 支持 反对

使用道具 举报

发表于 2020-2-14 20:47:28 | 显示全部楼层
很好看的样子。蓝光电影网太棒了吧!
回复 支持 反对

使用道具 举报

发表于 2020-2-14 21:46:13 | 显示全部楼层


我看不错噢 谢谢楼主!蓝光电影网越来越好!
回复 支持 反对

使用道具 举报

发表于 2020-2-14 22:29:40 | 显示全部楼层
楼主发贴辛苦了,谢谢楼主分享!我觉得蓝光电影网是注册对了!
回复 支持 反对

使用道具 举报

发表于 2020-2-14 22:53:37 | 显示全部楼层
终于有下载了,挺好的电影,很喜欢
回复 支持 反对

使用道具 举报

懒得打字嘛,点击右侧快捷回复 【右侧内容,后台自定义】
您需要登录后才可以回帖 登录 | 立即加入

本版积分规则

现在加入蓝光电影网,注册一个账号
上个主题 下个主题 快速回复 收藏帖子 返回列表 客服中心 搜索

手机版|小黑屋| 蓝光电影网 |网站地图 

Copyright © 2015-2019 Comsenz Inc.  Template by 蓝光电影论坛 All Rights Reserved.

Powered by 蓝光电影网 X3.4

特别声明:本站所有资源均由网上收集而来,版权归原影音公司所有,如果侵犯了你的权益,请通知我们,我们会及时删除侵权内容.

快速回复 返回顶部 返回列表