找回密码

蓝光电影网

查看: 147|回复: 1

[喜剧片] 律政佳人 Legally.Blondes.2009.1080p.WEBRip.x264-RARBG 1.64GB

[复制链接]

 成长值: 27985

发表于 2020-2-14 00:15:49 | 显示全部楼层 |阅读模式
律政佳人 Legally.Blondes.2009.1080p.WEBRip.x264-RARBG 1.64GB-1.png

译  名 律政佳人 / Legally Blonde 3 / 律政俏佳人3 / 律政俏佳人3:英国来的姐妹 / 律政小佳人
片  名 Legally Blondes
年  代 2009
产  地 美国
类  别 喜剧 / 家庭
语  言 英语
上映日期 2009-04-14
IMDb评分  3.7/10 from 4728 users
IMDb链接  https://www.imdb.com/title/tt1015999
豆瓣评分 5.9/10 from 3902 users
豆瓣链接 https://movie.douban.com/subject/2302386/
片  长 Argentina: 86 分钟(DVD version)
导  演 Savage Steve Holland
编  剧 Chad Gomez Creasey / Dara Resnik Creasey
主  演 Milly Rosso
       Becky Rosso
       Christopher Cousins
       Brittany Curran
       Lisa Banes


标  签 美国 | 青春 | 校园 | 喜剧 | 美国电影 | 励志 | 律政小佳人 | 电影

简  介  

  正当Elle Woods年轻之时,他的金发碧眼姊妹Annie 和 Izzy从英国搬去了加利福尼亚居住,整天想着怎么打扮自己,但是最终还是赶不上时代潮流,还有和自己势力的律师学校关系也不融洽.她们必须通过自己的机敏才智在班级以及法庭来证明金发碧眼并不是金玉其外.
  1. Video
  2. ID                                       : 1
  3. Format                                   : AVC
  4. Format/Info                              : Advanced Video Codec
  5. Format profile                           : High@L4
  6. Format settings                          : CABAC / 4 Ref Frames
  7. Format settings, CABAC                   : Yes
  8. Format settings, Reference frames        : 4 frames
  9. Codec ID                                 : avc1
  10. Codec ID/Info                            : Advanced Video Coding
  11. Duration                                 : 1 h 25 min
  12. Bit rate                                 : 2 500 kb/s
  13. Width                                    : 1 920 pixels
  14. Height                                   : 1 080 pixels
  15. Display aspect ratio                     : 16:9
  16. Frame rate mode                          : Constant
  17. Frame rate                               : 23.976 (23976/1000) FPS
  18. Color space                              : YUV
  19. Chroma subsampling                       : 4:2:0
  20. Bit depth                                : 8 bits
  21. Scan type                                : Progressive
  22. Bits/(Pixel*Frame)                       : 0.050
  23. Stream size                              : 1.50 GiB (92%)
  24. Writing library                          : x264 core 152 r2851M ba24899
  25. Encoding settings                        : cabac=1 / ref=4 / deblock=1:-1:-1 / analyse=0x3:0x113 / me=umh / subme=9 / psy=1 / psy_rd=1.00:0.15 / mixed_ref=1 / me_range=24 / chroma_me=1 / trellis=2 / 8x8dct=1 / cqm=0 / deadzone=21,11 / fast_pskip=1 / chroma_qp_offset=-3 / threads=16 / lookahead_threads=4 / sliced_threads=0 / nr=0 / decimate=1 / interlaced=0 / bluray_compat=0 / constrained_intra=0 / bframes=3 / b_pyramid=2 / b_adapt=2 / b_bias=0 / direct=3 / weightb=1 / open_gop=0 / weightp=2 / keyint=250 / keyint_min=25 / scenecut=40 / intra_refresh=0 / rc_lookahead=50 / rc=2pass / mbtree=1 / bitrate=2500 / ratetol=1.0 / qcomp=0.60 / qpmin=0 / qpmax=69 / qpstep=4 / cplxblur=20.0 / qblur=0.5 / vbv_maxrate=31250 / vbv_bufsize=31250 / nal_hrd=none / filler=0 / ip_ratio=1.40 / aq=3:1.00
  26. Encoded date                             : UTC 2020-02-13 05:34:58
  27. Tagged date                              : UTC 2020-02-13 05:34:58
  28. Codec configuration box                  : avcC

  29. Audio
  30. ID                                       : 2
  31. Format                                   : AAC LC
  32. Format/Info                              : Advanced Audio Codec Low Complexity
  33. Codec ID                                 : mp4a-40-2
  34. Duration                                 : 1 h 25 min
  35. Duration_LastFrame                       : -11 ms
  36. Bit rate mode                            : Constant
  37. Bit rate                                 : 224 kb/s
  38. Channel(s)                               : 2 channels
  39. Channel layout                           : L R
  40. Sampling rate                            : 48.0 kHz
  41. Frame rate                               : 46.875 FPS (1024 SPF)
  42. Compression mode                         : Lossy
  43. Stream size                              : 138 MiB (8%)
  44. Default                                  : Yes
  45. Alternate group                          : 1
  46. Encoded date                             : UTC 2020-02-13 05:34:58
  47. Tagged date                              : UTC 2020-02-13 05:34:58
复制代码

律政佳人 Legally.Blondes.2009.1080p.WEBRip.x264-RARBG 1.64GB-2.png 律政佳人 Legally.Blondes.2009.1080p.WEBRip.x264-RARBG 1.64GB-3.png 律政佳人 Legally.Blondes.2009.1080p.WEBRip.x264-RARBG 1.64GB-4.png






回复

使用道具 举报

发表于 2020-2-14 07:01:10 | 显示全部楼层

楼主太厉害了!楼主,电影应该很好看我觉得蓝光电影网真是个好地方!
回复 支持 反对

使用道具 举报

懒得打字嘛,点击右侧快捷回复 【右侧内容,后台自定义】
您需要登录后才可以回帖 登录 | 立即加入

本版积分规则

现在加入蓝光电影网,注册一个账号
上个主题 下个主题 快速回复 收藏帖子 返回列表 客服中心 搜索

手机版|小黑屋| 蓝光电影网 |网站地图 

Copyright © 2015-2019 Comsenz Inc.  Template by 蓝光电影论坛 All Rights Reserved.

Powered by 蓝光电影网 X3.4

特别声明:本站所有资源均由网上收集而来,版权归原影音公司所有,如果侵犯了你的权益,请通知我们,我们会及时删除侵权内容.

快速回复 返回顶部 返回列表