找回密码

蓝光电影网

查看: 1084|回复: 28

[2160p-WEB] 多哥 Togo.2019.iNTERNAL.HDR.2160p.WEB.H265-WATCHER 12.87GB

[复制链接]

 成长值: 24715

发表于 2020-2-13 23:43:15 | 显示全部楼层 |阅读模式
多哥 Togo.2019.iNTERNAL.HDR.2160p.WEB.H265-WATCHER 12.87GB-1.png

译  名 多哥 / Togo: The Untold True Story
片  名 Togo
年  代 2019
产  地 美国
类  别 剧情 / 冒险
语  言 英语
上映日期 2019-12-20(美国)
IMDb评分  8.1/10 from 15982 users
IMDb链接  https://www.imdb.com/title/tt5116302
豆瓣评分 8.8/10 from 18911 users
豆瓣链接 https://movie.douban.com/subject/30271841/
片  长 113分钟
导  演 埃里克松·科尔 Ericson Core
编  剧 汤姆·弗林 Tom Flynn
主  演 威廉·达福 Willem Dafoe
       朱丽安妮·尼科尔森 Julianne Nicholson
       克里斯托弗·赫耶达尔 Christopher Heyerdahl
       理查德·多默 Richard Dormer
       阿德里安·多瓦尔 Adrien Dorval
       玛德琳·威金斯 Madeline Wickins
       麦克尔·格雷耶斯 Michael Greyeyes
       妮维·尼尔森 Nive Nielsen
       尼古拉·尼克拉斐 Nikolai Nikolaeff
       托尔比约恩·哈尔 Thorbj?rn Harr
       凯瑟琳·麦格雷戈 Catherine McGregor
       迈克尔·麦克埃尔哈顿 Michael McElhatton
       保罗·皮斯科斯基 Paul Piaskowski
       迈克尔·加斯顿 Michael Gaston
       肖恩·本森 Shaun Benson
       杰米·麦克沙恩 Jamie McShane
       巴布·米切尔 Barb Mitchell
       大卫·博特 David Boat
       杰夫·汉尼 Jeff H?nni


标  签 狗 | 真实事件改编 | 动物 | 温情 | 美国 | 感人 | 剧情 | 2019

简  介  

  聚焦1925年雪橇手和雪橇犬齐心协力为拯救阿拉斯加州诺姆市孩子的性命而奔波于血清接力路上的事件,被称为“Great Race of Mercy”。本片将登陆迪士尼自家流媒体,2019年推出。
  1924年年底,诺姆市一个2岁小孩生病,医生诊断其患有扁桃体炎,这种疾病通常不会有生命危险,然而这个小孩成为例外,接下来很多孩子都被诊断患上了扁桃体炎,有几个不幸离世,医生最终确认这种病症是白喉。当时有一种疫苗能够用来对付白喉,然后诺姆市的疫苗全部过期,新疫苗在港口关闭前却未能送达,来年6月波罗的海才会解冻,也没有公路直通诺姆市、没有飞机,唯一运输货物的通道是邮路,然而冬天只有雪橇犬能够通行。卫生局决定使用两组雪橇犬接力运输,20个雪橇手和150只雪橇犬必须日夜兼程,经过河流,跨过平原,穿过森林,穿越冰冻的阿拉斯加邮路。最近的疫苗所在地为南纳,距离诺姆市1085公里,一般情况下狗拉雪橇需要费时25日,而他们只花了5天半就成功完成接力,拯救了多名孩子的性命。
  本片主角Togo是挪威赶雪橇高手Leonhard  Seppala(达福饰)使用的其中一只领头犬,因机智、卓越的领导力和敏锐的直觉备受称赞。Seppala被委任传送这场接力中最危险的一段,从诺姆到奴拉托接收那批免疫血清,在零下30度、七级以上强风的环境下成功完成了任务。之后南极探险家Roald Amundsen为Togo颁发了一枚金牌。
  比约恩饰演一名接力人员,在途中背叛了Seppala。

获奖情况  

  第72届美国编剧工会奖(2020)
  电视奖 最佳原创剧本-长篇剧集(提名)
  1. Video
  2. ID                                       : 1
  3. Format                                   : HEVC
  4. Format/Info                              : High Efficiency Video Coding
  5. Format profile                           : Main High@L4@High
  6. Codec ID                                 : V_MPEGH/ISO/HEVC
  7. Duration                                 : 1 h 53 min
  8. Bit rate                                 : 15.3 Mb/s
  9. Width                                    : 3 840 pixels
  10. Height                                   : 2 160 pixels
  11. Display aspect ratio                     : 16:9
  12. Frame rate mode                          : Constant
  13. Frame rate                               : 23.976 (24000/1001) FPS
  14. Color space                              : YUV
  15. Chroma subsampling                       : 4:2:0
  16. Bit depth                                : 10 bits
  17. Bits/(Pixel*Frame)                       : 0.077
  18. Stream size                              : 12.2 GiB (95%)
  19. Default                                  : Yes
  20. Forced                                   : No
  21. Color range                              : Limited
  22. Color primaries                          : BT.2020
  23. Transfer characteristics                 : PQ
  24. Matrix coefficients                      : BT.2020 non-constant

  25. Audio
  26. ID                                       : 2
  27. Format                                   : E-AC-3 JOC
  28. Format/Info                              : Enhanced AC-3 with Joint Object Coding
  29. Commercial name                          : Dolby Digital Plus with Dolby Atmos
  30. Codec ID                                 : A_EAC3
  31. Duration                                 : 1 h 53 min
  32. Bit rate mode                            : Constant
  33. Bit rate                                 : 768 kb/s
  34. Channel(s)                               : 6 channels
  35. Channel layout                           : L R C LFE Ls Rs
  36. Sampling rate                            : 48.0 kHz
  37. Frame rate                               : 31.250 FPS (1536 SPF)
  38. Compression mode                         : Lossy
  39. Stream size                              : 622 MiB (5%)
  40. Title                                    : English
  41. Language                                 : English
  42. Service kind                             : Complete Main
  43. Default                                  : Yes
  44. Forced                                   : No
  45. Complexity index                         : 16
  46. Number of dynamic objects                : 15
  47. Bed channel count                        : 1 channel
  48. Bed channel configuration                : LFE

  49. Text #1
  50. ID                                       : 3
  51. Format                                   : UTF-8
  52. Codec ID                                 : S_TEXT/UTF8
  53. Codec ID/Info                            : UTF-8 Plain Text
  54. Duration                                 : 1 h 42 min
  55. Bit rate                                 : 38 b/s
  56. Count of elements                        : 1051
  57. Stream size                              : 28.6 KiB (0%)
  58. Title                                    : English [SDH]
  59. Language                                 : English
  60. Default                                  : No
  61. Forced                                   : No

  62. Text #2
  63. ID                                       : 4
  64. Format                                   : UTF-8
  65. Codec ID                                 : S_TEXT/UTF8
  66. Codec ID/Info                            : UTF-8 Plain Text
  67. Duration                                 : 1 h 52 min
  68. Bit rate                                 : 0 b/s
  69. Count of elements                        : 20
  70. Stream size                              : 767 Bytes (0%)
  71. Title                                    : Spanish [Forced]
  72. Language                                 : Spanish
  73. Default                                  : No
  74. Forced                                   : Yes

  75. Text #3
  76. ID                                       : 5
  77. Format                                   : UTF-8
  78. Codec ID                                 : S_TEXT/UTF8
  79. Codec ID/Info                            : UTF-8 Plain Text
  80. Duration                                 : 1 h 52 min
  81. Bit rate                                 : 32 b/s
  82. Count of elements                        : 892
  83. Stream size                              : 27.0 KiB (0%)
  84. Title                                    : Spanish [Full]
  85. Language                                 : Spanish
  86. Default                                  : No
  87. Forced                                   : No

  88. Text #4
  89. ID                                       : 6
  90. Format                                   : UTF-8
  91. Codec ID                                 : S_TEXT/UTF8
  92. Codec ID/Info                            : UTF-8 Plain Text
  93. Duration                                 : 1 h 52 min
  94. Bit rate                                 : 0 b/s
  95. Count of elements                        : 20
  96. Stream size                              : 695 Bytes (0%)
  97. Title                                    : French [Forced]
  98. Language                                 : French
  99. Default                                  : No
  100. Forced                                   : Yes

  101. Text #5
  102. ID                                       : 7
  103. Format                                   : UTF-8
  104. Codec ID                                 : S_TEXT/UTF8
  105. Codec ID/Info                            : UTF-8 Plain Text
  106. Duration                                 : 1 h 52 min
  107. Bit rate                                 : 31 b/s
  108. Count of elements                        : 857
  109. Stream size                              : 25.6 KiB (0%)
  110. Title                                    : French [Full]
  111. Language                                 : French
  112. Default                                  : No
  113. Forced                                   : No

  114. Text #6
  115. ID                                       : 8
  116. Format                                   : UTF-8
  117. Codec ID                                 : S_TEXT/UTF8
  118. Codec ID/Info                            : UTF-8 Plain Text
  119. Duration                                 : 1 h 52 min
  120. Bit rate                                 : 0 b/s
  121. Count of elements                        : 15
  122. Stream size                              : 564 Bytes (0%)
  123. Title                                    : Dutch [Forced]
  124. Language                                 : Dutch
  125. Default                                  : No
  126. Forced                                   : Yes

  127. Text #7
  128. ID                                       : 9
  129. Format                                   : UTF-8
  130. Codec ID                                 : S_TEXT/UTF8
  131. Codec ID/Info                            : UTF-8 Plain Text
  132. Duration                                 : 1 h 52 min
  133. Bit rate                                 : 28 b/s
  134. Count of elements                        : 851
  135. Stream size                              : 23.1 KiB (0%)
  136. Title                                    : Dutch [Full]
  137. Language                                 : Dutch
  138. Default                                  : No
  139. Forced                                   : No
复制代码

多哥 Togo.2019.iNTERNAL.HDR.2160p.WEB.H265-WATCHER 12.87GB-1.png 多哥 Togo.2019.iNTERNAL.HDR.2160p.WEB.H265-WATCHER 12.87GB-3.png 多哥 Togo.2019.iNTERNAL.HDR.2160p.WEB.H265-WATCHER 12.87GB-4.png






回复

使用道具 举报

发表于 2020-2-14 02:26:31 | 显示全部楼层
感谢楼主分享
回复 支持 1 反对 0

使用道具 举报

发表于 2020-2-14 00:29:19 | 显示全部楼层
谢谢分享··
回复 支持 1 反对 0

使用道具 举报

发表于 2020-2-14 08:28:11 | 显示全部楼层
楼主发贴辛苦了,谢谢楼主分享!我觉得蓝光电影网是注册对了!
回复 支持 反对

使用道具 举报

发表于 2020-2-14 08:56:55 | 显示全部楼层
楼主发贴辛苦了,谢谢楼主分享!我觉得蓝光电影网是注册对了!
回复 支持 反对

使用道具 举报

发表于 2020-2-14 09:16:39 | 显示全部楼层
刚看过,很好看
回复 支持 反对

使用道具 举报

发表于 2020-2-14 09:43:52 | 显示全部楼层
好看的电影
回复 支持 反对

使用道具 举报

发表于 2020-2-14 10:09:30 | 显示全部楼层

我看不错噢 谢谢楼主!蓝光电影网越来越好!
回复 支持 反对

使用道具 举报

发表于 2020-2-14 10:20:48 | 显示全部楼层

既然你诚信诚意的推荐了,那我就勉为其难的看看吧!蓝光电影网不走平凡路。
回复 支持 反对

使用道具 举报

发表于 2020-2-14 13:22:11 | 显示全部楼层

这东西我收了!谢谢楼主!蓝光电影网真好!
回复 支持 反对

使用道具 举报

懒得打字嘛,点击右侧快捷回复 【右侧内容,后台自定义】
您需要登录后才可以回帖 登录 | 立即加入

本版积分规则

现在加入蓝光电影网,注册一个账号
上个主题 下个主题 快速回复 收藏帖子 返回列表 客服中心 搜索

手机版|小黑屋| 蓝光电影网 |网站地图 

Copyright © 2015-2019 Comsenz Inc.  Template by 蓝光电影论坛 All Rights Reserved.

Powered by 蓝光电影网 X3.4

特别声明:本站所有资源均由网上收集而来,版权归原影音公司所有,如果侵犯了你的权益,请通知我们,我们会及时删除侵权内容.

快速回复 返回顶部 返回列表