找回密码

蓝光电影网

查看: 44|回复: 0

[8bit.SDR] 小羊肖恩2:末日农场 A.Shaun.the.Sheep.Movie.Farmageddon.2019.2160p.BluRay.x264.8bit.SDR.DTS-HD.MA.TrueHD.7.1.Atmos-SWTYBLZ 20.10GB

[复制链接]

 成长值: 24580

发表于 4 天前 | 显示全部楼层 |阅读模式
小羊肖恩2:末日农场 A.Shaun.the.Sheep.Movie.Farmageddon.2019.2160p.BluRay.x264.8bit.SDR.DTS-HD.MA.TrueHD.7.1.Atmos-SWTYBLZ 20.10GB-1.png

译  名 小羊肖恩2:末日农场 / Shaun the Sheep 2 / 小羊肖恩2 / 小羊肖恩2:大决战 / 小羊肖恩大电影2 / 小羊肖恩大电影:农场末日 / 小羊肖恩:农场末日 / 笑笑羊大电影2:外星人来了!(台)
片  名 Shaun the Sheep Movie: Farmageddon
年  代 2019
产  地 英国 / 法国 / 美国
类  别 喜剧 / 科幻 / 动画 / 冒险
语  言 英语
上映日期 2019-09-26(德国) / 2019-10-18(英国) / 2019-12-28(中国大陆)
IMDb评分  7.0/10 from 2834 users
IMDb链接  https://www.imdb.com/title/tt6193408
豆瓣评分 8.0/10 from 5744 users
豆瓣链接 https://movie.douban.com/subject/26628382/
片  长 87分钟
导  演 威尔·比彻 Will Becher / 理查德·费兰 Richard Phelan
编  剧 Jon Brown / 马克·伯顿 Mark Burton / 尼克·帕克 Nick Park
主  演 贾斯汀·弗莱彻 Justin Fletcher
       约翰·斯帕克斯 John Sparkes
       克里斯·莫雷尔 Chris Morrell
       安迪·尼曼 Andy Nyman
       戴维·霍尔特 David Holt
       凯特·哈伯 Kate Harbour
       阿玛莉亚·维塔莱 Amalia Vitale
       乔·萨格 Joe Sugg


标  签 动画 | 小羊肖恩 | 英国 | 喜剧 | 粘土 | 2019 | 动画长片 | 电影

简  介  

  宁静祥和的农场里,小羊肖恩和伙伴们大开脑洞,做着各种挑战生命极限的游戏。这可气坏了牧羊犬,他接二连三制定禁令,防止羊们兴风作浪。肖恩哪能随便被人摆布?他想出鬼点子,通过电话订购了披萨,谁知却引来了一个始料未及的不速之客。来者是一个名叫噜啦的外星宝宝。虽然语言不通,但通过肢体语言,肖恩终于弄清噜啦想要找到飞船回到自己的家乡。经过一番缜密的策划,肖恩终于和这个新朋友踏上寻找飞船的征途。与此同时,不明飞行物的造访在小镇引起轰动,同时也惊动了一个专门追寻外星生物的政府机构。
  本来一波三折的寻找飞船之旅,如今又加入了气势汹汹的对手,肖恩他们将面临前所未有的考验……

获奖情况  

  第73届英国电影学院奖(2020)
  电影奖 最佳动画片(提名)

  第22届英国独立电影奖(2019)
  最佳新人导演(提名) 理查德·费兰 / 威尔·比彻
  最佳视效

  第24届金卫星奖(2020)
  电影部门 最佳动画片(提名)

  第40届伦敦影评人协会奖(2020)
  技术成就奖(提名) 理查德·费兰 / 威尔·比彻
  1. Video
  2. ID                                       : 1
  3. Format                                   : AVC
  4. Format/Info                              : Advanced Video Codec
  5. Format profile                           : High@L4
  6. Format settings                          : CABAC / 5 Ref Frames
  7. Format settings, CABAC                   : Yes
  8. Format settings, Reference frames        : 5 frames
  9. Codec ID                                 : V_MPEG4/ISO/AVC
  10. Duration                                 : 1 h 26 min
  11. Bit rate                                 : 24.0 Mb/s
  12. Width                                    : 3 840 pixels
  13. Height                                   : 1 608 pixels
  14. Display aspect ratio                     : 2.40:1
  15. Frame rate mode                          : Constant
  16. Frame rate                               : 24.000 FPS
  17. Color space                              : YUV
  18. Chroma subsampling                       : 4:2:0
  19. Bit depth                                : 8 bits
  20. Scan type                                : Progressive
  21. Bits/(Pixel*Frame)                       : 0.162
  22. Stream size                              : 14.6 GiB (73%)
  23. Title                                    : A.Shaun.the.Sheep.Movie.Farmageddon.2019.2160p.BluRay.x264.8bit.SDR.DTS-HD.MA.TrueHD.7.1.Atmos-SWTYBLZ
  24. Writing library                          : x264 core 157 r2935 545de2f
  25. Encoding settings                        : cabac=1 / ref=5 / deblock=1:-1:-1 / analyse=0x3:0x113 / me=umh / subme=10 / psy=1 / psy_rd=1.00:0.15 / mixed_ref=1 / me_range=48 / chroma_me=1 / trellis=2 / 8x8dct=1 / cqm=0 / deadzone=21,11 / fast_pskip=1 / chroma_qp_offset=-3 / threads=36 / lookahead_threads=3 / sliced_threads=0 / nr=0 / decimate=0 / interlaced=0 / bluray_compat=0 / constrained_intra=0 / bframes=3 / b_pyramid=2 / b_adapt=2 / b_bias=0 / direct=3 / weightb=1 / open_gop=0 / weightp=2 / keyint=250 / keyint_min=24 / scenecut=40 / intra_refresh=0 / rc_lookahead=50 / rc=crf / mbtree=1 / crf=18.0 / qcomp=0.60 / qpmin=0 / qpmax=69 / qpstep=4 / ip_ratio=1.40 / aq=1:1.00
  26. Default                                  : Yes
  27. Forced                                   : No

  28. Audio #1
  29. ID                                       : 2
  30. Format                                   : MLP FBA 16-ch
  31. Format/Info                              : Meridian Lossless Packing FBA with 16-channel presentation
  32. Commercial name                          : Dolby TrueHD with Dolby Atmos
  33. Codec ID                                 : A_TRUEHD
  34. Duration                                 : 1 h 26 min
  35. Bit rate mode                            : Variable
  36. Bit rate                                 : 4 127 kb/s
  37. Maximum bit rate                         : 6 426 kb/s
  38. Channel(s)                               : 8 channels
  39. Channel layout                           : L R C LFE Ls Rs Lb Rb
  40. Sampling rate                            : 48.0 kHz
  41. Frame rate                               : 1 200.000 FPS (40 SPF)
  42. Compression mode                         : Lossless
  43. Delay relative to video                  : 3 s 0 ms
  44. Stream size                              : 2.50 GiB (13%)
  45. Title                                    : A.Shaun.the.Sheep.Movie.Farmageddon.2019.2160p.BluRay.x264.8bit.SDR.DTS-HD.MA.TrueHD.7.1.Atmos-SWTYBLZ
  46. Language                                 : English
  47. Default                                  : Yes
  48. Forced                                   : No
  49. Number of dynamic objects                : 11
  50. Bed channel count                        : 1 channel
  51. Bed channel configuration                : LFE

  52. Audio #2
  53. ID                                       : 3
  54. Format                                   : DTS XLL
  55. Format/Info                              : Digital Theater Systems
  56. Commercial name                          : DTS-HD Master Audio
  57. Codec ID                                 : A_DTS
  58. Duration                                 : 1 h 26 min
  59. Bit rate mode                            : Variable
  60. Bit rate                                 : 4 043 kb/s
  61. Channel(s)                               : 8 channels
  62. Channel layout                           : C L R LFE Lb Rb Lss Rss
  63. Sampling rate                            : 48.0 kHz
  64. Frame rate                               : 93.750 FPS (512 SPF)
  65. Bit depth                                : 24 bits
  66. Compression mode                         : Lossless
  67. Stream size                              : 2.45 GiB (12%)
  68. Title                                    : A.Shaun.the.Sheep.Movie.Farmageddon.2019.2160p.BluRay.x264.8bit.SDR.DTS-HD.MA.TrueHD.7.1.Atmos-SWTYBLZ
  69. Language                                 : English
  70. Default                                  : No
  71. Forced                                   : No

  72. Audio #3
  73. ID                                       : 4
  74. Format                                   : AC-3
  75. Format/Info                              : Audio Coding 3
  76. Commercial name                          : Dolby Digital
  77. Codec ID                                 : A_AC3
  78. Duration                                 : 1 h 26 min
  79. Bit rate mode                            : Constant
  80. Bit rate                                 : 640 kb/s
  81. Channel(s)                               : 6 channels
  82. Channel layout                           : L R C LFE Ls Rs
  83. Sampling rate                            : 48.0 kHz
  84. Frame rate                               : 31.250 FPS (1536 SPF)
  85. Compression mode                         : Lossy
  86. Delay relative to video                  : 3 s 0 ms
  87. Stream size                              : 397 MiB (2%)
  88. Title                                    : A.Shaun.the.Sheep.Movie.Farmageddon.2019.2160p.BluRay.x264.8bit.SDR.DTS-HD.MA.TrueHD.7.1.Atmos-SWTYBLZ
  89. Language                                 : English
  90. Service kind                             : Complete Main
  91. Default                                  : No
  92. Forced                                   : No

  93. Text #1
  94. ID                                       : 5
  95. Format                                   : UTF-8
  96. Codec ID                                 : S_TEXT/UTF8
  97. Codec ID/Info                            : UTF-8 Plain Text
  98. Duration                                 : 1 h 26 min
  99. Bit rate                                 : 2 b/s
  100. Count of elements                        : 262
  101. Stream size                              : 1.34 KiB (0%)
  102. Title                                    : English-SRT
  103. Language                                 : English
  104. Default                                  : Yes
  105. Forced                                   : No

  106. Text #2
  107. ID                                       : 6
  108. Format                                   : UTF-8
  109. Codec ID                                 : S_TEXT/UTF8
  110. Codec ID/Info                            : UTF-8 Plain Text
  111. Duration                                 : 1 h 26 min
  112. Bit rate                                 : 28 b/s
  113. Count of elements                        : 1178
  114. Stream size                              : 17.8 KiB (0%)
  115. Title                                    : English-SDH-SRT
  116. Language                                 : English
  117. Default                                  : No
  118. Forced                                   : No

  119. Text #3
  120. ID                                       : 7
  121. Format                                   : PGS
  122. Muxing mode                              : zlib
  123. Codec ID                                 : S_HDMV/PGS
  124. Codec ID/Info                            : Picture based subtitle format used on BDs/HD-DVDs
  125. Duration                                 : 1 h 26 min
  126. Bit rate                                 : 24.2 kb/s
  127. Count of elements                        : 2356
  128. Stream size                              : 14.9 MiB (0%)
  129. Title                                    : English-PGS
  130. Language                                 : English
  131. Default                                  : No
  132. Forced                                   : No

  133. Menu
  134. 00:00:00.000                             : en:Chapter 01
  135. 00:06:26.208                             : en:Chapter 02
  136. 00:10:53.375                             : en:Chapter 03
  137. 00:17:35.500                             : en:Chapter 04
  138. 00:22:49.791                             : en:Chapter 05
  139. 00:32:55.666                             : en:Chapter 06
  140. 00:38:22.791                             : en:Chapter 07
  141. 00:44:31.416                             : en:Chapter 08
  142. 00:54:47.916                             : en:Chapter 09
  143. 01:01:03.208                             : en:Chapter 10
  144. 01:05:51.750                             : en:Chapter 11
  145. 01:12:29.041                             : en:Chapter 12
复制代码

小羊肖恩2:末日农场 A.Shaun.the.Sheep.Movie.Farmageddon.2019.2160p.BluRay.x264.8bit.SDR.DTS-HD.MA.TrueHD.7.1.Atmos-SWTYBLZ 20.10GB-2.png 小羊肖恩2:末日农场 A.Shaun.the.Sheep.Movie.Farmageddon.2019.2160p.BluRay.x264.8bit.SDR.DTS-HD.MA.TrueHD.7.1.Atmos-SWTYBLZ 20.10GB-3.png 小羊肖恩2:末日农场 A.Shaun.the.Sheep.Movie.Farmageddon.2019.2160p.BluRay.x264.8bit.SDR.DTS-HD.MA.TrueHD.7.1.Atmos-SWTYBLZ 20.10GB-4.png 小羊肖恩2:末日农场 A.Shaun.the.Sheep.Movie.Farmageddon.2019.2160p.BluRay.x264.8bit.SDR.DTS-HD.MA.TrueHD.7.1.Atmos-SWTYBLZ 20.10GB-5.png 小羊肖恩2:末日农场 A.Shaun.the.Sheep.Movie.Farmageddon.2019.2160p.BluRay.x264.8bit.SDR.DTS-HD.MA.TrueHD.7.1.Atmos-SWTYBLZ 20.10GB-6.png 小羊肖恩2:末日农场 A.Shaun.the.Sheep.Movie.Farmageddon.2019.2160p.BluRay.x264.8bit.SDR.DTS-HD.MA.TrueHD.7.1.Atmos-SWTYBLZ 20.10GB-7.png 小羊肖恩2:末日农场 A.Shaun.the.Sheep.Movie.Farmageddon.2019.2160p.BluRay.x264.8bit.SDR.DTS-HD.MA.TrueHD.7.1.Atmos-SWTYBLZ 20.10GB-8.png






回复

使用道具 举报

懒得打字嘛,点击右侧快捷回复 【右侧内容,后台自定义】
您需要登录后才可以回帖 登录 | 立即加入

本版积分规则

现在加入蓝光电影网,注册一个账号
上个主题 下个主题 快速回复 收藏帖子 返回列表 客服中心 搜索

手机版|小黑屋| 蓝光电影网 |网站地图 

Copyright © 2015-2019 Comsenz Inc.  Template by 蓝光电影论坛 All Rights Reserved.

Powered by 蓝光电影网 X3.4

特别声明:本站所有资源均由网上收集而来,版权归原影音公司所有,如果侵犯了你的权益,请通知我们,我们会及时删除侵权内容.

快速回复 返回顶部 返回列表