找回密码

蓝光电影网

查看: 250|回复: 0

[10bit.SDR] 小羊肖恩2:末日农场 A.Shaun.the.Sheep.Movie.Farmageddon.2019.2160p.BluRay.x265.10bit.SDR.DTS-HD.MA.TrueHD.7.1.Atmos-SWTYBLZ 19.03GB

[复制链接]

 成长值: 27925

发表于 2020-2-13 23:24:37 | 显示全部楼层 |阅读模式
小羊肖恩2:末日农场 A.Shaun.the.Sheep.Movie.Farmageddon.2019.2160p.BluRay.x265.10bit.SDR.DTS-HD.MA.TrueHD.7.1.Atmos-SWTYBLZ 19.03GB-1.png

译  名 小羊肖恩2:末日农场 / Shaun the Sheep 2 / 小羊肖恩2 / 小羊肖恩2:大决战 / 小羊肖恩大电影2 / 小羊肖恩大电影:农场末日 / 小羊肖恩:农场末日 / 笑笑羊大电影2:外星人来了!(台)
片  名 Shaun the Sheep Movie: Farmageddon
年  代 2019
产  地 英国 / 法国 / 美国
类  别 喜剧 / 科幻 / 动画 / 冒险
语  言 英语
上映日期 2019-09-26(德国) / 2019-10-18(英国) / 2019-12-28(中国大陆)
IMDb评分  7.0/10 from 2834 users
IMDb链接  https://www.imdb.com/title/tt6193408
豆瓣评分 8.0/10 from 5744 users
豆瓣链接 https://movie.douban.com/subject/26628382/
片  长 87分钟
导  演 威尔·比彻 Will Becher / 理查德·费兰 Richard Phelan
编  剧 Jon Brown / 马克·伯顿 Mark Burton / 尼克·帕克 Nick Park
主  演 贾斯汀·弗莱彻 Justin Fletcher
       约翰·斯帕克斯 John Sparkes
       克里斯·莫雷尔 Chris Morrell
       安迪·尼曼 Andy Nyman
       戴维·霍尔特 David Holt
       凯特·哈伯 Kate Harbour
       阿玛莉亚·维塔莱 Amalia Vitale
       乔·萨格 Joe Sugg


标  签 动画 | 小羊肖恩 | 英国 | 喜剧 | 粘土 | 2019 | 动画长片 | 电影

简  介  

  宁静祥和的农场里,小羊肖恩和伙伴们大开脑洞,做着各种挑战生命极限的游戏。这可气坏了牧羊犬,他接二连三制定禁令,防止羊们兴风作浪。肖恩哪能随便被人摆布?他想出鬼点子,通过电话订购了披萨,谁知却引来了一个始料未及的不速之客。来者是一个名叫噜啦的外星宝宝。虽然语言不通,但通过肢体语言,肖恩终于弄清噜啦想要找到飞船回到自己的家乡。经过一番缜密的策划,肖恩终于和这个新朋友踏上寻找飞船的征途。与此同时,不明飞行物的造访在小镇引起轰动,同时也惊动了一个专门追寻外星生物的政府机构。
  本来一波三折的寻找飞船之旅,如今又加入了气势汹汹的对手,肖恩他们将面临前所未有的考验……

获奖情况  

  第73届英国电影学院奖(2020)
  电影奖 最佳动画片(提名)

  第22届英国独立电影奖(2019)
  最佳新人导演(提名) 理查德·费兰 / 威尔·比彻
  最佳视效

  第24届金卫星奖(2020)
  电影部门 最佳动画片(提名)

  第40届伦敦影评人协会奖(2020)
  技术成就奖(提名) 理查德·费兰 / 威尔·比彻
  1. Video
  2. ID                                       : 1
  3. Format                                   : HEVC
  4. Format/Info                              : High Efficiency Video Coding
  5. Format profile                           : Main High@L4@High
  6. Codec ID                                 : V_MPEGH/ISO/HEVC
  7. Duration                                 : 1 h 26 min
  8. Bit rate                                 : 22.3 Mb/s
  9. Width                                    : 3 840 pixels
  10. Height                                   : 1 608 pixels
  11. Display aspect ratio                     : 2.40:1
  12. Frame rate mode                          : Constant
  13. Frame rate                               : 24.000 FPS
  14. Color space                              : YUV
  15. Chroma subsampling                       : 4:2:0
  16. Bit depth                                : 10 bits
  17. Bits/(Pixel*Frame)                       : 0.150
  18. Stream size                              : 13.5 GiB (71%)
  19. Title                                    : A.Shaun.the.Sheep.Movie.Farmageddon.2019.2160p.BluRay.x265.10bit.SDR.DTS-HD.MA.TrueHD.7.1.Atmos-SWTYBLZ
  20. Writing library                          : x265 3.0ed72af837053:[Windows][GCC 8.2.0][64 bit] 10bit
  21. Encoding settings                        : cpuid=1111039 / frame-threads=6 / numa-pools=40 / wpp / no-pmode / no-pme / no-psnr / no-ssim / log-level=2 / input-csp=1 / input-res=3840x1608 / interlace=0 / total-frames=125070 / level-idc=51 / high-tier=1 / uhd-bd=0 / ref=3 / no-allow-non-conformance / repeat-headers / annexb / aud / hrd / info / hash=0 / no-temporal-layers / no-open-gop / min-keyint=1 / keyint=24 / gop-lookahead=0 / bframes=4 / b-adapt=2 / b-pyramid / bframe-bias=0 / rc-lookahead=25 / lookahead-slices=4 / scenecut=40 / radl=0 / no-splice / no-intra-refresh / ctu=64 / min-cu-size=8 / no-rect / no-amp / max-tu-size=32 / tu-inter-depth=1 / tu-intra-depth=1 / limit-tu=0 / rdoq-level=0 / dynamic-rd=0.00 / no-ssim-rd / signhide / no-tskip / nr-intra=0 / nr-inter=0 / no-constrained-intra / strong-intra-smoothing / max-merge=2 / limit-refs=3 / no-limit-modes / me=1 / subme=2 / merange=57 / temporal-mvp / weightp / no-weightb / no-analyze-src-pics / deblock=0:0 / no-sao / no-sao-non-deblock / rd=3 / no-early-skip / rskip / no-fast-intra / no-tskip-fast / no-cu-lossless / no-b-intra / no-splitrd-skip / rdpenalty=0 / psy-rd=2.00 / psy-rdoq=0.00 / no-rd-refine / no-lossless / cbqpoffs=0 / crqpoffs=0 / rc=crf / crf=16.0 / qcomp=0.60 / qpstep=4 / stats-write=0 / stats-read=0 / vbv-maxrate=160000 / vbv-bufsize=160000 / vbv-init=0.9 / crf-max=0.0 / crf-min=0.0 / ipratio=1.40 / pbratio=1.30 / aq-mode=1 / aq-strength=1.00 / cutree / zone-count=0 / no-strict-cbr / qg-size=32 / no-rc-grain / qpmax=69 / qpmin=0 / no-const-vbv / sar=1 / overscan=0 / videoformat=5 / range=0 / colorprim=2 / transfer=2 / colormatrix=2 / chromaloc=0 / display-window=0 / max-cll=0,0 / min-luma=0 / max-luma=1023 / log2-max-poc-lsb=8 / vui-timing-info / vui-hrd-info / slices=1 / opt-qp-pps / opt-ref-list-length-pps / no-multi-pass-opt-rps / scenecut-bias=0.05 / no-opt-cu-delta-qp / no-aq-motion / no-hdr / no-hdr-opt / no-dhdr10-opt / no-idr-recovery-sei / analysis-reuse-level=5 / scale-factor=0 / refine-intra=0 / refine-inter=0 / refine-mv=0 / refine-ctu-distortion=0 / no-limit-sao / ctu-info=0 / no-lowpass-dct / refine-analysis-type=0 / copy-pic=1 / max-ausize-factor=1.0 / no-dynamic-refine / no-single-sei / no-hevc-aq / qp-adaptation-range=1.00
  22. Default                                  : Yes
  23. Forced                                   : No

  24. Audio #1
  25. ID                                       : 2
  26. Format                                   : MLP FBA 16-ch
  27. Format/Info                              : Meridian Lossless Packing FBA with 16-channel presentation
  28. Commercial name                          : Dolby TrueHD with Dolby Atmos
  29. Codec ID                                 : A_TRUEHD
  30. Duration                                 : 1 h 26 min
  31. Bit rate mode                            : Variable
  32. Bit rate                                 : 4 127 kb/s
  33. Maximum bit rate                         : 6 426 kb/s
  34. Channel(s)                               : 8 channels
  35. Channel layout                           : L R C LFE Ls Rs Lb Rb
  36. Sampling rate                            : 48.0 kHz
  37. Frame rate                               : 1 200.000 FPS (40 SPF)
  38. Compression mode                         : Lossless
  39. Delay relative to video                  : 3 s 0 ms
  40. Stream size                              : 2.50 GiB (13%)
  41. Title                                    : A.Shaun.the.Sheep.Movie.Farmageddon.2019.2160p.BluRay.x265.10bit.SDR.DTS-HD.MA.TrueHD.7.1.Atmos-SWTYBLZ
  42. Language                                 : English
  43. Default                                  : Yes
  44. Forced                                   : No
  45. Number of dynamic objects                : 11
  46. Bed channel count                        : 1 channel
  47. Bed channel configuration                : LFE

  48. Audio #2
  49. ID                                       : 3
  50. Format                                   : DTS XLL
  51. Format/Info                              : Digital Theater Systems
  52. Commercial name                          : DTS-HD Master Audio
  53. Codec ID                                 : A_DTS
  54. Duration                                 : 1 h 26 min
  55. Bit rate mode                            : Variable
  56. Bit rate                                 : 4 043 kb/s
  57. Channel(s)                               : 8 channels
  58. Channel layout                           : C L R LFE Lb Rb Lss Rss
  59. Sampling rate                            : 48.0 kHz
  60. Frame rate                               : 93.750 FPS (512 SPF)
  61. Bit depth                                : 24 bits
  62. Compression mode                         : Lossless
  63. Stream size                              : 2.45 GiB (13%)
  64. Title                                    : A.Shaun.the.Sheep.Movie.Farmageddon.2019.2160p.BluRay.x265.10bit.SDR.DTS-HD.MA.TrueHD.7.1.Atmos-SWTYBLZ
  65. Language                                 : English
  66. Default                                  : No
  67. Forced                                   : No

  68. Audio #3
  69. ID                                       : 4
  70. Format                                   : AC-3
  71. Format/Info                              : Audio Coding 3
  72. Commercial name                          : Dolby Digital
  73. Codec ID                                 : A_AC3
  74. Duration                                 : 1 h 26 min
  75. Bit rate mode                            : Constant
  76. Bit rate                                 : 640 kb/s
  77. Channel(s)                               : 6 channels
  78. Channel layout                           : L R C LFE Ls Rs
  79. Sampling rate                            : 48.0 kHz
  80. Frame rate                               : 31.250 FPS (1536 SPF)
  81. Compression mode                         : Lossy
  82. Delay relative to video                  : 3 s 0 ms
  83. Stream size                              : 397 MiB (2%)
  84. Title                                    : A.Shaun.the.Sheep.Movie.Farmageddon.2019.2160p.BluRay.x265.10bit.SDR.DTS-HD.MA.TrueHD.7.1.Atmos-SWTYBLZ
  85. Language                                 : English
  86. Service kind                             : Complete Main
  87. Default                                  : No
  88. Forced                                   : No

  89. Text #1
  90. ID                                       : 5
  91. Format                                   : UTF-8
  92. Codec ID                                 : S_TEXT/UTF8
  93. Codec ID/Info                            : UTF-8 Plain Text
  94. Duration                                 : 1 h 26 min
  95. Bit rate                                 : 2 b/s
  96. Count of elements                        : 262
  97. Stream size                              : 1.34 KiB (0%)
  98. Title                                    : English-SRT
  99. Language                                 : English
  100. Default                                  : Yes
  101. Forced                                   : No

  102. Text #2
  103. ID                                       : 6
  104. Format                                   : UTF-8
  105. Codec ID                                 : S_TEXT/UTF8
  106. Codec ID/Info                            : UTF-8 Plain Text
  107. Duration                                 : 1 h 26 min
  108. Bit rate                                 : 28 b/s
  109. Count of elements                        : 1178
  110. Stream size                              : 17.8 KiB (0%)
  111. Title                                    : English-SDH-SRT
  112. Language                                 : English
  113. Default                                  : No
  114. Forced                                   : No

  115. Text #3
  116. ID                                       : 7
  117. Format                                   : PGS
  118. Muxing mode                              : zlib
  119. Codec ID                                 : S_HDMV/PGS
  120. Codec ID/Info                            : Picture based subtitle format used on BDs/HD-DVDs
  121. Duration                                 : 1 h 26 min
  122. Bit rate                                 : 24.2 kb/s
  123. Count of elements                        : 2356
  124. Stream size                              : 14.9 MiB (0%)
  125. Title                                    : English-PGS
  126. Language                                 : English
  127. Default                                  : No
  128. Forced                                   : No

  129. Menu
  130. 00:00:00.000                             : en:Chapter 01
  131. 00:06:26.208                             : en:Chapter 02
  132. 00:10:53.375                             : en:Chapter 03
  133. 00:17:35.500                             : en:Chapter 04
  134. 00:22:49.791                             : en:Chapter 05
  135. 00:32:55.666                             : en:Chapter 06
  136. 00:38:22.791                             : en:Chapter 07
  137. 00:44:31.416                             : en:Chapter 08
  138. 00:54:47.916                             : en:Chapter 09
  139. 01:01:03.208                             : en:Chapter 10
  140. 01:05:51.750                             : en:Chapter 11
  141. 01:12:29.041                             : en:Chapter 12
复制代码

小羊肖恩2:末日农场 A.Shaun.the.Sheep.Movie.Farmageddon.2019.2160p.BluRay.x265.10bit.SDR.DTS-HD.MA.TrueHD.7.1.Atmos-SWTYBLZ 19.03GB-2.png 小羊肖恩2:末日农场 A.Shaun.the.Sheep.Movie.Farmageddon.2019.2160p.BluRay.x265.10bit.SDR.DTS-HD.MA.TrueHD.7.1.Atmos-SWTYBLZ 19.03GB-3.png 小羊肖恩2:末日农场 A.Shaun.the.Sheep.Movie.Farmageddon.2019.2160p.BluRay.x265.10bit.SDR.DTS-HD.MA.TrueHD.7.1.Atmos-SWTYBLZ 19.03GB-4.png 小羊肖恩2:末日农场 A.Shaun.the.Sheep.Movie.Farmageddon.2019.2160p.BluRay.x265.10bit.SDR.DTS-HD.MA.TrueHD.7.1.Atmos-SWTYBLZ 19.03GB-5.png 小羊肖恩2:末日农场 A.Shaun.the.Sheep.Movie.Farmageddon.2019.2160p.BluRay.x265.10bit.SDR.DTS-HD.MA.TrueHD.7.1.Atmos-SWTYBLZ 19.03GB-6.png 小羊肖恩2:末日农场 A.Shaun.the.Sheep.Movie.Farmageddon.2019.2160p.BluRay.x265.10bit.SDR.DTS-HD.MA.TrueHD.7.1.Atmos-SWTYBLZ 19.03GB-7.png 小羊肖恩2:末日农场 A.Shaun.the.Sheep.Movie.Farmageddon.2019.2160p.BluRay.x265.10bit.SDR.DTS-HD.MA.TrueHD.7.1.Atmos-SWTYBLZ 19.03GB-8.png






回复

使用道具 举报

懒得打字嘛,点击右侧快捷回复 【右侧内容,后台自定义】
您需要登录后才可以回帖 登录 | 立即加入

本版积分规则

现在加入蓝光电影网,注册一个账号
上个主题 下个主题 快速回复 收藏帖子 返回列表 客服中心 搜索

手机版|小黑屋| 蓝光电影网 |网站地图 

Copyright © 2015-2019 Comsenz Inc.  Template by 蓝光电影论坛 All Rights Reserved.

Powered by 蓝光电影网 X3.4

特别声明:本站所有资源均由网上收集而来,版权归原影音公司所有,如果侵犯了你的权益,请通知我们,我们会及时删除侵权内容.

快速回复 返回顶部 返回列表