找回密码

蓝光电影网

查看: 61|回复: 1

[REMUX.HEVC] 小羊肖恩2:末日农场 A.Shaun.the.Sheep.Movie.Farmageddon.2019.2160p.BluRay.REMUX.HEVC.DTS-HD.MA.TrueHD.7.1.Atmos-FGT 42.04GB

[复制链接]

 成长值: 24580

发表于 4 天前 | 显示全部楼层 |阅读模式
小羊肖恩2:末日农场 A.Shaun.the.Sheep.Movie.Farmageddon.2019.2160p.BluRay.REMUX.HEVC.DTS-HD.MA.TrueHD.7.1.Atmos-FGT 42.04GB-1.png

译  名 小羊肖恩2:末日农场 / Shaun the Sheep 2 / 小羊肖恩2 / 小羊肖恩2:大决战 / 小羊肖恩大电影2 / 小羊肖恩大电影:农场末日 / 小羊肖恩:农场末日 / 笑笑羊大电影2:外星人来了!(台)
片  名 Shaun the Sheep Movie: Farmageddon
年  代 2019
产  地 英国 / 法国 / 美国
类  别 喜剧 / 科幻 / 动画 / 冒险
语  言 英语
上映日期 2019-09-26(德国) / 2019-10-18(英国) / 2019-12-28(中国大陆)
IMDb评分  7.0/10 from 2834 users
IMDb链接  https://www.imdb.com/title/tt6193408
豆瓣评分 8.0/10 from 5744 users
豆瓣链接 https://movie.douban.com/subject/26628382/
片  长 87分钟
导  演 威尔·比彻 Will Becher / 理查德·费兰 Richard Phelan
编  剧 Jon Brown / 马克·伯顿 Mark Burton / 尼克·帕克 Nick Park
主  演 贾斯汀·弗莱彻 Justin Fletcher
       约翰·斯帕克斯 John Sparkes
       克里斯·莫雷尔 Chris Morrell
       安迪·尼曼 Andy Nyman
       戴维·霍尔特 David Holt
       凯特·哈伯 Kate Harbour
       阿玛莉亚·维塔莱 Amalia Vitale
       乔·萨格 Joe Sugg


标  签 动画 | 小羊肖恩 | 英国 | 喜剧 | 粘土 | 2019 | 动画长片 | 电影

简  介  

  宁静祥和的农场里,小羊肖恩和伙伴们大开脑洞,做着各种挑战生命极限的游戏。这可气坏了牧羊犬,他接二连三制定禁令,防止羊们兴风作浪。肖恩哪能随便被人摆布?他想出鬼点子,通过电话订购了披萨,谁知却引来了一个始料未及的不速之客。来者是一个名叫噜啦的外星宝宝。虽然语言不通,但通过肢体语言,肖恩终于弄清噜啦想要找到飞船回到自己的家乡。经过一番缜密的策划,肖恩终于和这个新朋友踏上寻找飞船的征途。与此同时,不明飞行物的造访在小镇引起轰动,同时也惊动了一个专门追寻外星生物的政府机构。
  本来一波三折的寻找飞船之旅,如今又加入了气势汹汹的对手,肖恩他们将面临前所未有的考验……

获奖情况  

  第73届英国电影学院奖(2020)
  电影奖 最佳动画片(提名)

  第22届英国独立电影奖(2019)
  最佳新人导演(提名) 理查德·费兰 / 威尔·比彻
  最佳视效

  第24届金卫星奖(2020)
  电影部门 最佳动画片(提名)

  第40届伦敦影评人协会奖(2020)
  技术成就奖(提名) 理查德·费兰 / 威尔·比彻
  1. Video #1
  2. ID                                       : 1
  3. Format                                   : HEVC
  4. Format/Info                              : High Efficiency Video Coding
  5. Format profile                           : Main High@L4@High
  6. HDR format                               : SMPTE ST 2086, HDR10 compatible
  7. Codec ID                                 : V_MPEGH/ISO/HEVC
  8. Duration                                 : 1 h 26 min
  9. Bit rate                                 : 51.9 Mb/s
  10. Width                                    : 3 840 pixels
  11. Height                                   : 2 160 pixels
  12. Display aspect ratio                     : 16:9
  13. Frame rate mode                          : Constant
  14. Frame rate                               : 24.000 FPS
  15. Color space                              : YUV
  16. Chroma subsampling                       : 4:2:0 (Type 2)
  17. Bit depth                                : 10 bits
  18. Bits/(Pixel*Frame)                       : 0.261
  19. Stream size                              : 31.5 GiB (75%)
  20. Title                                    : A.Shaun.the.Sheep.Movie.Farmageddon.2019.2160p.BluRay.REMUX.HEVC.DTS-HD.MA.TrueHD.7.1.Atmos-FGT
  21. Language                                 : English
  22. Default                                  : Yes
  23. Forced                                   : No
  24. Color range                              : Limited
  25. Color primaries                          : BT.2020
  26. Transfer characteristics                 : PQ
  27. Matrix coefficients                      : BT.2020 non-constant
  28. Mastering display color primaries        : Display P3
  29. Mastering display luminance              : min: 0.0001 cd/m2, max: 1000 cd/m2

  30. Video #2
  31. ID                                       : 2
  32. Format                                   : HEVC
  33. Format/Info                              : High Efficiency Video Coding
  34. Format profile                           : Main High@L4@High
  35. HDR format                               : SMPTE ST 2086, HDR10 compatible
  36. Codec ID                                 : V_MPEGH/ISO/HEVC
  37. Duration                                 : 1 h 26 min
  38. Bit rate                                 : 6 223 kb/s
  39. Width                                    : 1 920 pixels
  40. Height                                   : 1 080 pixels
  41. Display aspect ratio                     : 16:9
  42. Frame rate mode                          : Constant
  43. Frame rate                               : 24.000 FPS
  44. Color space                              : YUV
  45. Chroma subsampling                       : 4:2:0 (Type 2)
  46. Bit depth                                : 10 bits
  47. Bits/(Pixel*Frame)                       : 0.125
  48. Stream size                              : 3.78 GiB (9%)
  49. Title                                    : A.Shaun.the.Sheep.Movie.Farmageddon.2019.2160p.BluRay.REMUX.HEVC.DTS-HD.MA.TrueHD.7.1.Atmos-FGT
  50. Language                                 : English
  51. Default                                  : No
  52. Forced                                   : No
  53. Color range                              : Limited
  54. Color primaries                          : BT.2020
  55. Transfer characteristics                 : PQ
  56. Matrix coefficients                      : BT.2020 non-constant
  57. Mastering display color primaries        : Display P3
  58. Mastering display luminance              : min: 0.0001 cd/m2, max: 1000 cd/m2

  59. Audio #1
  60. ID                                       : 3
  61. Format                                   : MLP FBA 16-ch
  62. Format/Info                              : Meridian Lossless Packing FBA with 16-channel presentation
  63. Commercial name                          : Dolby TrueHD with Dolby Atmos
  64. Codec ID                                 : A_TRUEHD
  65. Duration                                 : 1 h 26 min
  66. Bit rate mode                            : Variable
  67. Bit rate                                 : 4 127 kb/s
  68. Maximum bit rate                         : 6 426 kb/s
  69. Channel(s)                               : 8 channels
  70. Channel layout                           : L R C LFE Ls Rs Lb Rb
  71. Sampling rate                            : 48.0 kHz
  72. Frame rate                               : 1 200.000 FPS (40 SPF)
  73. Compression mode                         : Lossless
  74. Delay relative to video                  : 3 s 0 ms
  75. Stream size                              : 2.50 GiB (6%)
  76. Title                                    : A.Shaun.the.Sheep.Movie.Farmageddon.2019.2160p.BluRay.REMUX.HEVC.DTS-HD.MA.TrueHD.7.1.Atmos-FGT
  77. Language                                 : English
  78. Default                                  : Yes
  79. Forced                                   : No
  80. Number of dynamic objects                : 11
  81. Bed channel count                        : 1 channel
  82. Bed channel configuration                : LFE

  83. Audio #2
  84. ID                                       : 4
  85. Format                                   : DTS XLL
  86. Format/Info                              : Digital Theater Systems
  87. Commercial name                          : DTS-HD Master Audio
  88. Codec ID                                 : A_DTS
  89. Duration                                 : 1 h 26 min
  90. Bit rate mode                            : Variable
  91. Bit rate                                 : 4 043 kb/s
  92. Channel(s)                               : 8 channels
  93. Channel layout                           : C L R LFE Lb Rb Lss Rss
  94. Sampling rate                            : 48.0 kHz
  95. Frame rate                               : 93.750 FPS (512 SPF)
  96. Bit depth                                : 24 bits
  97. Compression mode                         : Lossless
  98. Stream size                              : 2.45 GiB (6%)
  99. Title                                    : A.Shaun.the.Sheep.Movie.Farmageddon.2019.2160p.BluRay.REMUX.HEVC.DTS-HD.MA.TrueHD.7.1.Atmos-FGT
  100. Language                                 : English
  101. Default                                  : No
  102. Forced                                   : No

  103. Audio #3
  104. ID                                       : 5
  105. Format                                   : AC-3
  106. Format/Info                              : Audio Coding 3
  107. Commercial name                          : Dolby Digital
  108. Codec ID                                 : A_AC3
  109. Duration                                 : 1 h 26 min
  110. Bit rate mode                            : Constant
  111. Bit rate                                 : 640 kb/s
  112. Channel(s)                               : 6 channels
  113. Channel layout                           : L R C LFE Ls Rs
  114. Sampling rate                            : 48.0 kHz
  115. Frame rate                               : 31.250 FPS (1536 SPF)
  116. Bit depth                                : 16 bits
  117. Compression mode                         : Lossy
  118. Delay relative to video                  : 3 s 0 ms
  119. Stream size                              : 397 MiB (1%)
  120. Title                                    : A.Shaun.the.Sheep.Movie.Farmageddon.2019.2160p.BluRay.REMUX.HEVC.DTS-HD.MA.TrueHD.7.1.Atmos-FGT
  121. Language                                 : English
  122. Service kind                             : Complete Main
  123. Default                                  : No
  124. Forced                                   : No

  125. Audio #4
  126. ID                                       : 6
  127. Format                                   : PCM
  128. Format settings                          : Little / Signed
  129. Codec ID                                 : A_PCM/INT/LIT
  130. Duration                                 : 1 h 26 min
  131. Bit rate mode                            : Constant
  132. Bit rate                                 : 2 304 kb/s
  133. Channel(s)                               : 2 channels
  134. Sampling rate                            : 48.0 kHz
  135. Frame rate                               : 30.000 FPS (1600 SPF)
  136. Bit depth                                : 24 bits
  137. Stream size                              : 1.40 GiB (3%)
  138. Title                                    : A.Shaun.the.Sheep.Movie.Farmageddon.2019.2160p.BluRay.REMUX.HEVC.DTS-HD.MA.TrueHD.7.1.Atmos-FGT
  139. Language                                 : English
  140. Default                                  : No
  141. Forced                                   : No

  142. Text #1
  143. ID                                       : 7
  144. Format                                   : UTF-8
  145. Codec ID                                 : S_TEXT/UTF8
  146. Codec ID/Info                            : UTF-8 Plain Text
  147. Duration                                 : 1 h 26 min
  148. Bit rate                                 : 2 b/s
  149. Count of elements                        : 262
  150. Stream size                              : 1.34 KiB (0%)
  151. Title                                    : English-SRT
  152. Language                                 : English
  153. Default                                  : No
  154. Forced                                   : No

  155. Text #2
  156. ID                                       : 8
  157. Format                                   : UTF-8
  158. Codec ID                                 : S_TEXT/UTF8
  159. Codec ID/Info                            : UTF-8 Plain Text
  160. Duration                                 : 1 h 26 min
  161. Bit rate                                 : 28 b/s
  162. Count of elements                        : 1178
  163. Stream size                              : 17.8 KiB (0%)
  164. Title                                    : English-SDH-SRT
  165. Language                                 : English
  166. Default                                  : No
  167. Forced                                   : No

  168. Text #3
  169. ID                                       : 9
  170. Format                                   : PGS
  171. Muxing mode                              : zlib
  172. Codec ID                                 : S_HDMV/PGS
  173. Codec ID/Info                            : Picture based subtitle format used on BDs/HD-DVDs
  174. Duration                                 : 1 h 26 min
  175. Bit rate                                 : 24.2 kb/s
  176. Count of elements                        : 2356
  177. Stream size                              : 14.9 MiB (0%)
  178. Title                                    : English-PGS
  179. Language                                 : English
  180. Default                                  : Yes
  181. Forced                                   : No

  182. Menu
  183. 00:00:00.000                             : en:Chapter 01
  184. 00:06:26.208                             : en:Chapter 02
  185. 00:10:53.375                             : en:Chapter 03
  186. 00:17:35.500                             : en:Chapter 04
  187. 00:22:49.791                             : en:Chapter 05
  188. 00:32:55.666                             : en:Chapter 06
  189. 00:38:22.791                             : en:Chapter 07
  190. 00:44:31.416                             : en:Chapter 08
  191. 00:54:47.916                             : en:Chapter 09
  192. 01:01:03.208                             : en:Chapter 10
  193. 01:05:51.750                             : en:Chapter 11
  194. 01:12:29.041                             : en:Chapter 12
复制代码

小羊肖恩2:末日农场 A.Shaun.the.Sheep.Movie.Farmageddon.2019.2160p.BluRay.REMUX.HEVC.DTS-HD.MA.TrueHD.7.1.Atmos-FGT 42.04GB-2.png 小羊肖恩2:末日农场 A.Shaun.the.Sheep.Movie.Farmageddon.2019.2160p.BluRay.REMUX.HEVC.DTS-HD.MA.TrueHD.7.1.Atmos-FGT 42.04GB-3.png 小羊肖恩2:末日农场 A.Shaun.the.Sheep.Movie.Farmageddon.2019.2160p.BluRay.REMUX.HEVC.DTS-HD.MA.TrueHD.7.1.Atmos-FGT 42.04GB-4.png







回复

使用道具 举报

 成长值: 1920

发表于 3 天前 | 显示全部楼层
谢谢楼主无私分享。
回复 支持 反对

使用道具 举报

懒得打字嘛,点击右侧快捷回复 【右侧内容,后台自定义】
您需要登录后才可以回帖 登录 | 立即加入

本版积分规则

现在加入蓝光电影网,注册一个账号
上个主题 下个主题 快速回复 收藏帖子 返回列表 客服中心 搜索

手机版|小黑屋| 蓝光电影网 |网站地图 

Copyright © 2015-2019 Comsenz Inc.  Template by 蓝光电影论坛 All Rights Reserved.

Powered by 蓝光电影网 X3.4

特别声明:本站所有资源均由网上收集而来,版权归原影音公司所有,如果侵犯了你的权益,请通知我们,我们会及时删除侵权内容.

快速回复 返回顶部 返回列表