找回密码

蓝光电影网

查看: 429|回复: 6

[10bit.SDR] 乔乔的异想世界/JOJO兔 Jojo.Rabbit.2019.2160p.BluRay.x265.10bit.SDR.DTS-HD.MA.5.1-SWTYBLZ 31.13GB

[复制链接]

 成长值: 24580

发表于 7 天前 | 显示全部楼层 |阅读模式
乔乔的异想世界/JOJO兔 Jojo.Rabbit.2019.2160p.BluRay.x265.10bit.SDR.DTS-HD.MA.5.1-SWTYBLZ 31.13GB-1.png

译  名 乔乔的异想世界 / JOJO兔 / 乔乔兔 / 兔嘲男孩(台) / 少年乔乔的异想世界 / 陽光兔仔兵 (港)
片  名 Jojo Rabbit
年  代 2019
产  地 美国 / 捷克 / 新西兰
类  别 剧情 / 喜剧 / 战争
语  言 英语 / 德语
上映日期 2019-09-08(多伦多电影节) / 2019-11-08(美国) / 2020(中国大陆)
IMDb评分  8.0/10 from 88626 users
IMDb链接  https://www.imdb.com/title/tt2584384
豆瓣评分 8.4/10 from 44333 users
豆瓣链接 https://movie.douban.com/subject/30170546/
片  长 108分钟
导  演 塔伊加·维迪提 Taika Waititi
编  剧 塔伊加·维迪提 Taika Waititi / 克里斯汀·勒南斯 Christine Leunens
主  演 罗曼·格里芬·戴维斯 Roman Griffin Davis
       托马辛·麦肯齐 Thomasin McKenzie
       斯嘉丽·约翰逊 Scarlett Johansson
       塔伊加·维迪提 Taika Waititi
       山姆·洛克威尔 Sam Rockwell
       蕾蓓尔·威尔森 Rebel Wilson
       阿尔菲·艾伦 Alfie Allen
       斯戴芬·莫昌特 Stephen Merchant
       阿奇·耶茨 Archie Yates
       卢克·布兰登·菲尔德 Luke Brandon Field
       山姆·海加斯 Sam Haygarth
       史丹斯拉夫·卡拉斯 Stanislav Callas
       乔·温特劳布 Joe Weintraub
       布莱恩·卡斯佩 Brian Caspe
       加布里埃尔·安德鲁斯 Gabriel Andrews
       罗伯特·伊斯特 Robert East
       比利·雷纳 Billy Rayner
       克里斯蒂安·豪林斯 Christian Howlings
       吉尔比·格里芬·戴维斯 Gilby Griffin Davis
       哈迪·格里芬·戴维斯 Hardy Griffin Davis
       柯蒂斯·马修 Curtis Matthew
       贝萨尼·亚当斯 Bethany Adams
       朱迪思·乔治 Judith Georgi
       维多利亚·霍根 Victoria Hogan


标  签 二战 | 喜剧 | 战争 | 美国 | 德国 | 剧情 | 奇幻 | 2019

简  介  

  二战时期,男孩乔乔(戴维斯)和母亲(斯嘉丽)生活在纳粹德国统治下,他不知道母亲在家中藏着一个犹太女孩(麦肯齐),而母亲秘密为抵抗军工作。乔乔渴望加入希特勒青年团,他脑内出了一个颠覆版的希特勒,这个希特勒有魅力、傻傻的、天真可爱,是他的朋友,帮助他应付生活中的困境。

获奖情况  

  第92届奥斯卡金像奖(2020)
  最佳影片(提名) 塔伊加·维迪提 / Carthew Neal
  最佳女配角(提名) 斯嘉丽·约翰逊
  最佳改编剧本(提名) 塔伊加·维迪提
  最佳剪辑(提名) 汤姆·伊格尔斯
  最佳艺术指导(提名)
  最佳服装设计(提名) 玛耶斯·C·鲁贝奥

  第77届金球奖(2020)
  电影类 最佳音乐/喜剧片(提名)
  电影类 音乐/喜剧片最佳男主角(提名) 罗曼·格里芬·戴维斯

  第73届英国电影学院奖(2020)
  电影奖 最佳女配角(提名) 斯嘉丽·约翰逊
  电影奖 最佳改编剧本 塔伊加·维迪提
  电影奖 最佳剪辑(提名) 汤姆·伊格尔斯
  电影奖 最佳服装设计(提名) 玛耶斯·C·鲁贝奥
  电影奖 最佳艺术指导(提名) 拉·文森特 / Nora Sopková
  电影奖 最佳原创配乐(提名) 迈克·吉亚奇诺

  第44届多伦多国际电影节(2019)
  观众选择奖 塔伊加·维迪提

  第72届美国导演工会奖(2020)
  最佳电影导演(提名) 塔伊加·维迪提

  第26届美国演员工会奖(2020)
  电影奖 最佳女配角(提名) 斯嘉丽·约翰逊
  电影奖 最佳群戏(提名)

  第72届美国编剧工会奖(2020)
  电影奖 最佳改编剧本 塔伊加·维迪提

  第31届美国制片人工会奖(2020)
  最佳电影制片人奖(提名)

  第70届美国剪辑工会奖(2020)
  音乐/喜剧片最佳剪辑 汤姆·伊格尔斯

  第24届美国艺术指导工会奖(2020)
  电影奖 最佳历史电影艺术指导(提名) 拉·文森特

  第22届美国服装设计工会奖(2020)
  年代电影最佳服装设计 玛耶斯·C·鲁贝奥

  第67届美国音效剪辑协会奖(2020)
  金卷轴奖 最佳电影对白剪辑(提名)

  第91届美国国家评论协会奖(2019)
  年度佳片

  第25届美国评论家选择电影奖(2020)
  最佳影片(提名)
  最佳女配角(提名) 斯嘉丽·约翰逊
  最佳青少年演员 罗曼·格里芬·戴维斯
  最佳青少年演员(提名) 托马辛·麦肯齐 / 阿奇·耶茨
  最佳喜剧片(提名)
  最佳改编剧本(提名) 塔伊加·维迪提

  第20届美国电影学会奖(2019)
  年度佳片

  第24届金卫星奖(2020)
  电影部门 喜剧/音乐片最佳男主角(提名) 塔伊加·维迪提
  电影部门 最佳改编剧本(提名) 塔伊加·维迪提

  第23届好莱坞电影奖(2019)
  年度摄影奖 小米哈伊·马拉米尔
  年度艺术指导 拉·文森特

  第18届华盛顿影评人协会奖(2019)
  最佳青少年表演 罗曼·格里芬·戴维斯

  第40届伦敦影评人协会奖(2020)
  年度英国/爱尔兰小演员(提名) 罗曼·格里芬·戴维斯

  第32届芝加哥影评人协会奖(2019)
  最佳改编剧本(提名) 塔伊加·维迪提
  最具潜力演员(提名) 罗曼·格里芬·戴维斯

  第23届美国在线影评人协会奖(2020)
  最佳影片(提名)
  最佳改编剧本(提名) 塔伊加·维迪提
  1. Video
  2. ID                                       : 1
  3. Format                                   : HEVC
  4. Format/Info                              : High Efficiency Video Coding
  5. Format profile                           : Main High@L4@High
  6. Codec ID                                 : V_MPEGH/ISO/HEVC
  7. Duration                                 : 1 h 48 min
  8. Bit rate                                 : 36.9 Mb/s
  9. Width                                    : 3 840 pixels
  10. Height                                   : 2 076 pixels
  11. Display aspect ratio                     : 1.85:1
  12. Frame rate mode                          : Constant
  13. Frame rate                               : 23.976 (24000/1001) FPS
  14. Color space                              : YUV
  15. Chroma subsampling                       : 4:2:0
  16. Bit depth                                : 10 bits
  17. Bits/(Pixel*Frame)                       : 0.193
  18. Stream size                              : 27.9 GiB (90%)
  19. Title                                    : Jojo.Rabbit.2019.2160p.BluRay.x265.10bit.SDR.DTS-HD.MA.5.1-SWTYBLZ
  20. Writing library                          : x265 3.0ed72af837053:[Windows][GCC 8.2.0][64 bit] 10bit
  21. Encoding settings                        : cpuid=1111039 / frame-threads=6 / numa-pools=40 / wpp / no-pmode / no-pme / no-psnr / no-ssim / log-level=2 / input-csp=1 / input-res=3840x2076 / interlace=0 / total-frames=155928 / level-idc=51 / high-tier=1 / uhd-bd=0 / ref=3 / no-allow-non-conformance / repeat-headers / annexb / aud / hrd / info / hash=0 / no-temporal-layers / no-open-gop / min-keyint=1 / keyint=24 / gop-lookahead=0 / bframes=4 / b-adapt=2 / b-pyramid / bframe-bias=0 / rc-lookahead=25 / lookahead-slices=4 / scenecut=40 / radl=0 / no-splice / no-intra-refresh / ctu=64 / min-cu-size=8 / no-rect / no-amp / max-tu-size=32 / tu-inter-depth=1 / tu-intra-depth=1 / limit-tu=0 / rdoq-level=0 / dynamic-rd=0.00 / no-ssim-rd / signhide / no-tskip / nr-intra=0 / nr-inter=0 / no-constrained-intra / strong-intra-smoothing / max-merge=2 / limit-refs=3 / no-limit-modes / me=1 / subme=2 / merange=57 / temporal-mvp / weightp / no-weightb / no-analyze-src-pics / deblock=0:0 / no-sao / no-sao-non-deblock / rd=3 / no-early-skip / rskip / no-fast-intra / no-tskip-fast / no-cu-lossless / no-b-intra / no-splitrd-skip / rdpenalty=0 / psy-rd=2.00 / psy-rdoq=0.00 / no-rd-refine / no-lossless / cbqpoffs=0 / crqpoffs=0 / rc=crf / crf=16.0 / qcomp=0.60 / qpstep=4 / stats-write=0 / stats-read=0 / vbv-maxrate=160000 / vbv-bufsize=160000 / vbv-init=0.9 / crf-max=0.0 / crf-min=0.0 / ipratio=1.40 / pbratio=1.30 / aq-mode=1 / aq-strength=1.00 / cutree / zone-count=0 / no-strict-cbr / qg-size=32 / no-rc-grain / qpmax=69 / qpmin=0 / no-const-vbv / sar=1 / overscan=0 / videoformat=5 / range=0 / colorprim=2 / transfer=2 / colormatrix=2 / chromaloc=0 / display-window=0 / max-cll=0,0 / min-luma=0 / max-luma=1023 / log2-max-poc-lsb=8 / vui-timing-info / vui-hrd-info / slices=1 / opt-qp-pps / opt-ref-list-length-pps / no-multi-pass-opt-rps / scenecut-bias=0.05 / no-opt-cu-delta-qp / no-aq-motion / no-hdr / no-hdr-opt / no-dhdr10-opt / no-idr-recovery-sei / analysis-reuse-level=5 / scale-factor=0 / refine-intra=0 / refine-inter=0 / refine-mv=0 / refine-ctu-distortion=0 / no-limit-sao / ctu-info=0 / no-lowpass-dct / refine-analysis-type=0 / copy-pic=1 / max-ausize-factor=1.0 / no-dynamic-refine / no-single-sei / no-hevc-aq / qp-adaptation-range=1.00
  22. Default                                  : Yes
  23. Forced                                   : No

  24. Audio #1
  25. ID                                       : 2
  26. Format                                   : DTS XLL
  27. Format/Info                              : Digital Theater Systems
  28. Commercial name                          : DTS-HD Master Audio
  29. Codec ID                                 : A_DTS
  30. Duration                                 : 1 h 48 min
  31. Bit rate mode                            : Variable
  32. Bit rate                                 : 3 341 kb/s
  33. Channel(s)                               : 6 channels
  34. Channel layout                           : C L R Ls Rs LFE
  35. Sampling rate                            : 48.0 kHz
  36. Frame rate                               : 93.750 FPS (512 SPF)
  37. Bit depth                                : 24 bits
  38. Compression mode                         : Lossless
  39. Stream size                              : 2.53 GiB (8%)
  40. Title                                    : Jojo.Rabbit.2019.2160p.BluRay.x265.10bit.SDR.DTS-HD.MA.5.1-SWTYBLZ
  41. Language                                 : English
  42. Default                                  : Yes
  43. Forced                                   : No

  44. Audio #2
  45. ID                                       : 3
  46. Format                                   : AC-3
  47. Format/Info                              : Audio Coding 3
  48. Commercial name                          : Dolby Digital
  49. Codec ID                                 : A_AC3
  50. Duration                                 : 1 h 48 min
  51. Bit rate mode                            : Constant
  52. Bit rate                                 : 640 kb/s
  53. Channel(s)                               : 6 channels
  54. Channel layout                           : L R C LFE Ls Rs
  55. Sampling rate                            : 48.0 kHz
  56. Frame rate                               : 31.250 FPS (1536 SPF)
  57. Compression mode                         : Lossy
  58. Stream size                              : 496 MiB (2%)
  59. Title                                    : Jojo.Rabbit.2019.2160p.BluRay.x265.10bit.SDR.DTS-HD.MA.5.1-SWTYBLZ
  60. Language                                 : English
  61. Service kind                             : Complete Main
  62. Default                                  : No
  63. Forced                                   : No

  64. Text #1
  65. ID                                       : 4
  66. Format                                   : UTF-8
  67. Codec ID                                 : S_TEXT/UTF8
  68. Codec ID/Info                            : UTF-8 Plain Text
  69. Duration                                 : 1 h 45 min
  70. Bit rate                                 : 62 b/s
  71. Count of elements                        : 1633
  72. Stream size                              : 48.2 KiB (0%)
  73. Title                                    : English-SRT
  74. Language                                 : English
  75. Default                                  : Yes
  76. Forced                                   : No

  77. Text #2
  78. ID                                       : 5
  79. Format                                   : PGS
  80. Muxing mode                              : zlib
  81. Codec ID                                 : S_HDMV/PGS
  82. Codec ID/Info                            : Picture based subtitle format used on BDs/HD-DVDs
  83. Duration                                 : 1 h 48 min
  84. Bit rate                                 : 40.7 kb/s
  85. Count of elements                        : 3588
  86. Stream size                              : 31.5 MiB (0%)
  87. Title                                    : English-PGS
  88. Language                                 : English
  89. Default                                  : No
  90. Forced                                   : No

  91. Text #3
  92. ID                                       : 6
  93. Format                                   : PGS
  94. Muxing mode                              : zlib
  95. Codec ID                                 : S_HDMV/PGS
  96. Codec ID/Info                            : Picture based subtitle format used on BDs/HD-DVDs
  97. Duration                                 : 1 h 47 min
  98. Bit rate                                 : 35.5 kb/s
  99. Count of elements                        : 2864
  100. Stream size                              : 27.4 MiB (0%)
  101. Title                                    : French-PGS
  102. Language                                 : French
  103. Default                                  : No
  104. Forced                                   : No

  105. Menu
  106. 00:00:00.000                             : en:Chapter 01
  107. 00:06:04.906                             : en:Chapter 02
  108. 00:09:25.523                             : en:Chapter 03
  109. 00:13:34.522                             : en:Chapter 04
  110. 00:16:17.059                             : en:Chapter 05
  111. 00:20:09.333                             : en:Chapter 06
  112. 00:27:09.461                             : en:Chapter 07
  113. 00:31:02.861                             : en:Chapter 08
  114. 00:36:30.146                             : en:Chapter 09
  115. 00:39:45.967                             : en:Chapter 10
  116. 00:44:13.192                             : en:Chapter 11
  117. 00:49:53.782                             : en:Chapter 12
  118. 00:53:17.194                             : en:Chapter 13
  119. 00:59:35.113                             : en:Chapter 14
  120. 01:03:34.019                             : en:Chapter 15
  121. 01:08:32.483                             : en:Chapter 16
  122. 01:14:20.498                             : en:Chapter 17
  123. 01:17:36.485                             : en:Chapter 18
  124. 01:22:13.387                             : en:Chapter 19
  125. 01:26:20.675                             : en:Chapter 20
  126. 01:29:24.901                             : en:Chapter 21
  127. 01:32:28.042                             : en:Chapter 22
  128. 01:37:15.371                             : en:Chapter 23
  129. 01:41:03.015                             : en:Chapter 24
复制代码

乔乔的异想世界/JOJO兔 Jojo.Rabbit.2019.2160p.BluRay.x265.10bit.SDR.DTS-HD.MA.5.1-SWTYBLZ 31.13GB-2.png 乔乔的异想世界/JOJO兔 Jojo.Rabbit.2019.2160p.BluRay.x265.10bit.SDR.DTS-HD.MA.5.1-SWTYBLZ 31.13GB-3.png 乔乔的异想世界/JOJO兔 Jojo.Rabbit.2019.2160p.BluRay.x265.10bit.SDR.DTS-HD.MA.5.1-SWTYBLZ 31.13GB-4.png 乔乔的异想世界/JOJO兔 Jojo.Rabbit.2019.2160p.BluRay.x265.10bit.SDR.DTS-HD.MA.5.1-SWTYBLZ 31.13GB-5.png 乔乔的异想世界/JOJO兔 Jojo.Rabbit.2019.2160p.BluRay.x265.10bit.SDR.DTS-HD.MA.5.1-SWTYBLZ 31.13GB-6.png 乔乔的异想世界/JOJO兔 Jojo.Rabbit.2019.2160p.BluRay.x265.10bit.SDR.DTS-HD.MA.5.1-SWTYBLZ 31.13GB-7.png 乔乔的异想世界/JOJO兔 Jojo.Rabbit.2019.2160p.BluRay.x265.10bit.SDR.DTS-HD.MA.5.1-SWTYBLZ 31.13GB-8.png






回复

使用道具 举报

 成长值: 8705

发表于 7 天前 | 显示全部楼层
楼主发贴辛苦了,谢谢楼主分享!
回复 支持 反对

使用道具 举报

发表于 6 天前 | 显示全部楼层
感谢楼主分享
回复 支持 反对

使用道具 举报

发表于 6 天前 | 显示全部楼层
楼主发贴辛苦了,谢谢楼主分享!我觉得蓝光电影网是注册对了!
回复 支持 反对

使用道具 举报

发表于 6 天前 | 显示全部楼层
楼主发贴辛苦了,谢谢楼主分享!
回复 支持 反对

使用道具 举报

发表于 4 天前 | 显示全部楼层
楼主发贴辛苦了,谢谢楼主分享!
回复 支持 反对

使用道具 举报

 成长值: 1105

发表于 3 天前 来自手机 | 显示全部楼层
回复

使用道具 举报

懒得打字嘛,点击右侧快捷回复 【右侧内容,后台自定义】
您需要登录后才可以回帖 登录 | 立即加入

本版积分规则

现在加入蓝光电影网,注册一个账号
上个主题 下个主题 快速回复 收藏帖子 返回列表 客服中心 搜索

手机版|小黑屋| 蓝光电影网 |网站地图 

Copyright © 2015-2019 Comsenz Inc.  Template by 蓝光电影论坛 All Rights Reserved.

Powered by 蓝光电影网 X3.4

特别声明:本站所有资源均由网上收集而来,版权归原影音公司所有,如果侵犯了你的权益,请通知我们,我们会及时删除侵权内容.

快速回复 返回顶部 返回列表