找回密码

蓝光电影网

查看: 1137|回复: 22

[2160p-WEB] 利刃出鞘/上流谋杀案 Knives.Out.2019.2160p.AMZN.WEBRip.DDP5.1.x264-AJP69 44.24GB

[复制链接]

 成长值: 24580

发表于 7 天前 | 显示全部楼层 |阅读模式
利刃出鞘/上流谋杀案 Knives.Out.2019.2160p.AMZN.WEBRip.DDP5.1.x264-AJP69 44.24GB-1.png

译  名 利刃出鞘 / 上流谋杀案 / 亮剑 / 出鞘 / 神探白朗:福比利大宅谋杀案(港) / 致命遗产 / 锋回路转(台)
片  名 Knives Out
年  代 2019
产  地 美国
类  别 剧情 / 喜剧 / 悬疑 / 犯罪
语  言 英语 / 西班牙语
上映日期 2019-09-07(多伦多电影节) / 2019-11-27(美国) / 2019-11-29(中国大陆)
IMDb评分  8.0/10 from 142299 users
IMDb链接  https://www.imdb.com/title/tt8946378
豆瓣评分 8.2/10 from 290382 users
豆瓣链接 https://movie.douban.com/subject/30318116/
片  长 130分钟
导  演 莱恩·约翰逊 Rian Johnson
编  剧 莱恩·约翰逊 Rian Johnson
主  演 丹尼尔·克雷格 Daniel Craig
       安娜·德·阿玛斯 Ana de Armas
       克里斯·埃文斯 Chris Evans
       杰米·李·柯蒂斯 Jamie Lee Curtis
       迈克尔·珊农 Michael Shannon
       唐·约翰逊 Don Johnson
       托妮·科莱特 Toni Collette
       勒凯斯·斯坦菲尔德 Lakeith Stanfield
       克里斯托弗·普卢默 Christopher Plummer
       凯瑟琳·兰福德 Katherine Langford
       杰登·马泰尔 Jaeden Martell
       瑞琪·琳德赫姆 Riki Lindhome
       艾迪·帕特森 Edi Patterson
       弗兰克·奥兹 Frank Oz
       K·卡兰 K Callan
       诺阿·西甘 Noah Segan
       M·埃梅特·沃尔什 M. Emmet Walsh
       玛琳娜·福特 Marlene Forte
       劳尔·卡斯提洛 Raúl Castillo
       雪莉·罗德里格斯 Shyrley Rodriguez
       约瑟夫·高登-莱维特 Joseph Gordon-Levitt
       加布里埃尔·洛莱斯 Gabrielle Lorthe


标  签 悬疑 | 推理 | 美国 | 犯罪 | 黑色幽默 | 侦探 | 剧情 | 2019

简  介  

  富豪小说家哈兰·斯隆比在自己85岁生日第二天,被发现在自家庄园离奇自杀,遗留了亿万遗产。久负盛名的大侦探布兰科(丹尼尔·克雷格饰)突然被匿名人士雇佣调查此案真相。同时,哈兰的孙子兰森(克里斯·埃文斯饰)也正在秘密调查此案。当布兰科和哈兰·斯隆比家族的其他人对谈时, 他发现事情并没有想象中那么简单。
  哈兰家族没有表面上那么和睦,每个人都有着不可告人的秘密,每个人都想得到遗产……究竟这起命案是自杀还是他杀?似乎每个人都有嫌疑。随着一位遗产继承人的意外亮相,真相谜底渐渐浮出水面……

获奖情况  

  第92届奥斯卡金像奖(2020)
  最佳原创剧本(提名) 莱恩·约翰逊

  第77届金球奖(2020)
  电影类 最佳音乐/喜剧片(提名)
  电影类 音乐/喜剧片最佳男主角(提名) 丹尼尔·克雷格
  电影类 音乐/喜剧片最佳女主角(提名) 安娜·德·阿玛斯

  第73届英国电影学院奖(2020)
  电影奖 最佳原创剧本(提名) 莱恩·约翰逊

  第72届美国编剧工会奖(2020)
  电影奖 最佳原创剧本(提名) 莱恩·约翰逊

  第31届美国制片人工会奖(2020)
  最佳电影制片人奖(提名)

  第70届美国剪辑工会奖(2020)
  音乐/喜剧片最佳剪辑(提名) 鲍勃·达克萨

  第24届美国艺术指导工会奖(2020)
  电影奖 最佳当代电影艺术指导(提名) 大卫·格兰克

  第22届美国服装设计工会奖(2020)
  现代电影最佳服装设计 珍妮·伊根

  第91届美国国家评论协会奖(2019)
  最佳群戏
  年度佳片

  第25届美国评论家选择电影奖(2020)
  最佳群戏(提名)
  最佳喜剧片(提名)
  最佳原创剧本(提名) 莱恩·约翰逊

  第20届美国电影学会奖(2019)
  年度佳片

  第24届金卫星奖(2020)
  电影部门 最佳喜剧/音乐片(提名)
  电影部门 喜剧/音乐片最佳男主角(提名) 丹尼尔·克雷格
  电影部门 喜剧/音乐片最佳女主角(提名) 安娜·德·阿玛斯
  电影最佳群像

  第18届华盛顿影评人协会奖(2019)
  最佳群戏

  第40届伦敦影评人协会奖(2020)
  年度电影(提名)

  第32届芝加哥影评人协会奖(2019)
  最佳原创剧本(提名) 莱恩·约翰逊
  最佳艺术指导(提名)

  第4届亚特兰大影评人协会奖(2019)
  十佳影片

  第23届美国在线影评人协会奖(2020)
  最佳影片(提名)
  最佳原创剧本(提名) 莱恩·约翰逊

  第6届豆瓣电影年度榜单(2019)
  评分最高的外语电影(提名)
  评分最高的喜剧片(提名)
  1. Video
  2. ID                                       : 1
  3. Format                                   : AVC
  4. Format/Info                              : Advanced Video Codec
  5. Format profile                           : High@L4
  6. Format settings                          : CABAC / 5 Ref Frames
  7. Format settings, CABAC                   : Yes
  8. Format settings, Reference frames        : 5 frames
  9. Codec ID                                 : V_MPEG4/ISO/AVC
  10. Duration                                 : 2 h 10 min
  11. Bit rate                                 : 48.0 Mb/s
  12. Width                                    : 3 840 pixels
  13. Height                                   : 2 080 pixels
  14. Display aspect ratio                     : 1.85:1
  15. Frame rate mode                          : Constant
  16. Frame rate                               : 23.976 (24000/1001) FPS
  17. Color space                              : YUV
  18. Chroma subsampling                       : 4:2:0
  19. Bit depth                                : 8 bits
  20. Scan type                                : Progressive
  21. Bits/(Pixel*Frame)                       : 0.251
  22. Stream size                              : 43.7 GiB (99%)
  23. Writing library                          : x264 core 158 r2984 3759fcb
  24. Encoding settings                        : cabac=1 / ref=5 / deblock=1:-3:-3 / analyse=0x3:0x133 / me=umh / subme=10 / psy=1 / psy_rd=1.00:0.00 / mixed_ref=1 / me_range=48 / chroma_me=1 / trellis=2 / 8x8dct=1 / cqm=0 / deadzone=21,11 / fast_pskip=0 / chroma_qp_offset=-2 / threads=24 / lookahead_threads=4 / sliced_threads=0 / nr=0 / decimate=0 / interlaced=0 / bluray_compat=0 / constrained_intra=0 / bframes=8 / b_pyramid=2 / b_adapt=2 / b_bias=0 / direct=3 / weightb=1 / open_gop=0 / weightp=2 / keyint=250 / keyint_min=23 / scenecut=40 / intra_refresh=0 / rc=crf / mbtree=0 / crf=18.0 / qcomp=0.60 / qpmin=0 / qpmax=69 / qpstep=4 / ip_ratio=1.30 / pb_ratio=1.20 / aq=3:0.80
  25. Default                                  : Yes
  26. Forced                                   : No

  27. Audio
  28. ID                                       : 2
  29. Format                                   : E-AC-3
  30. Format/Info                              : Enhanced AC-3
  31. Commercial name                          : Dolby Digital Plus
  32. Codec ID                                 : A_EAC3
  33. Duration                                 : 2 h 10 min
  34. Bit rate mode                            : Constant
  35. Bit rate                                 : 640 kb/s
  36. Channel(s)                               : 6 channels
  37. Channel layout                           : L R C LFE Ls Rs
  38. Sampling rate                            : 48.0 kHz
  39. Frame rate                               : 31.250 FPS (1536 SPF)
  40. Compression mode                         : Lossy
  41. Stream size                              : 596 MiB (1%)
  42. Language                                 : English
  43. Service kind                             : Complete Main
  44. Default                                  : Yes
  45. Forced                                   : No

  46. Text #1
  47. ID                                       : 3
  48. Format                                   : UTF-8
  49. Codec ID                                 : S_TEXT/UTF8
  50. Codec ID/Info                            : UTF-8 Plain Text
  51. Duration                                 : 2 h 2 min
  52. Bit rate                                 : 85 b/s
  53. Count of elements                        : 2616
  54. Stream size                              : 76.2 KiB (0%)
  55. Language                                 : English
  56. Default                                  : No
  57. Forced                                   : No

  58. Text #2
  59. ID                                       : 4
  60. Format                                   : UTF-8
  61. Codec ID                                 : S_TEXT/UTF8
  62. Codec ID/Info                            : UTF-8 Plain Text
  63. Duration                                 : 2 h 2 min
  64. Bit rate                                 : 89 b/s
  65. Count of elements                        : 2795
  66. Stream size                              : 79.8 KiB (0%)
  67. Title                                    : SDH
  68. Language                                 : English
  69. Default                                  : No
  70. Forced                                   : No

  71. Menu
  72. 00:00:00.000                             : en:Studio Logo
  73. 00:00:39.000                             : en:Scene 2
  74. 00:02:16.000                             : en:Title Sequence
  75. 00:02:21.000                             : en:Scene 4
  76. 00:06:49.000                             : en:Scene 5
  77. 00:12:48.000                             : en:Scene 6
  78. 00:18:31.000                             : en:Scene 7
  79. 00:25:12.000                             : en:Scene 8
  80. 00:31:49.000                             : en:Scene 9
  81. 00:38:52.000                             : en:Scene 10
  82. 00:43:01.000                             : en:Scene 11
  83. 00:49:44.000                             : en:Scene 12
  84. 00:54:28.000                             : en:Scene 13
  85. 01:00:14.000                             : en:Scene 14
  86. 01:04:54.000                             : en:Scene 15
  87. 01:10:26.000                             : en:Scene 16
  88. 01:15:37.000                             : en:Scene 17
  89. 01:21:55.000                             : en:Scene 18
  90. 01:28:50.000                             : en:Scene 19
  91. 01:36:15.000                             : en:Scene 20
  92. 01:42:17.000                             : en:Scene 21
  93. 01:46:54.000                             : en:Scene 22
  94. 01:52:17.000                             : en:Scene 23
  95. 02:01:45.000                             : en:Scene 24
  96. 02:05:13.000                             : en:End Credits
复制代码

利刃出鞘/上流谋杀案 Knives.Out.2019.2160p.AMZN.WEBRip.DDP5.1.x264-AJP69 44.24GB-2.png 利刃出鞘/上流谋杀案 Knives.Out.2019.2160p.AMZN.WEBRip.DDP5.1.x264-AJP69 44.24GB-3.png 利刃出鞘/上流谋杀案 Knives.Out.2019.2160p.AMZN.WEBRip.DDP5.1.x264-AJP69 44.24GB-4.png






回复

使用道具 举报

发表于 7 天前 | 显示全部楼层

这个帖子不回对不起自己!我想我是一天也不能离开蓝光电影网
回复 支持 反对

使用道具 举报

 成长值: 205

发表于 7 天前 | 显示全部楼层

感谢楼主的无私分享!要想蓝光电影网好 就靠你我他
回复 支持 反对

使用道具 举报

 成长值: 190

发表于 7 天前 | 显示全部楼层
这个还没看呢
回复 支持 反对

使用道具 举报

发表于 7 天前 | 显示全部楼层

其实我一直觉得楼主的品味不错!呵呵!蓝光电影网太棒了!
回复 支持 反对

使用道具 举报

发表于 7 天前 | 显示全部楼层
据说很好看的一部电影,支持一下
回复 支持 反对

使用道具 举报

 成长值: 2740

发表于 7 天前 | 显示全部楼层
楼主发贴辛苦了,谢谢楼主分享!我觉得蓝光电影网是注册对了!
回复 支持 反对

使用道具 举报

 成长值: 1225

发表于 7 天前 | 显示全部楼层
这个牛逼,必须点赞。
回复 支持 反对

使用道具 举报

发表于 6 天前 | 显示全部楼层
楼主发贴辛苦了,谢谢楼主分享!我觉得蓝光电影网是注册对了!
回复 支持 反对

使用道具 举报

发表于 6 天前 | 显示全部楼层
谢谢分享好片
回复 支持 反对

使用道具 举报

懒得打字嘛,点击右侧快捷回复 【右侧内容,后台自定义】
您需要登录后才可以回帖 登录 | 立即加入

本版积分规则

现在加入蓝光电影网,注册一个账号
上个主题 下个主题 快速回复 收藏帖子 返回列表 客服中心 搜索

手机版|小黑屋| 蓝光电影网 |网站地图 

Copyright © 2015-2019 Comsenz Inc.  Template by 蓝光电影论坛 All Rights Reserved.

Powered by 蓝光电影网 X3.4

特别声明:本站所有资源均由网上收集而来,版权归原影音公司所有,如果侵犯了你的权益,请通知我们,我们会及时删除侵权内容.

快速回复 返回顶部 返回列表