找回密码

蓝光电影网

查看: 456|回复: 5

[10bit.HDR] 乔乔的异想世界/JOJO兔 Jojo.Rabbit.2019.2160p.UHD.BluRay.x265.10bit.HDR.DTS-HD.MA.5.1-SWTYBLZ 18.03GB

[复制链接]

 成长值: 24580

发表于 7 天前 | 显示全部楼层 |阅读模式
乔乔的异想世界/JOJO兔 Jojo.Rabbit.2019.2160p.UHD.BluRay.x265.10bit.HDR.DTS-HD.MA.5.1-SWTYBLZ 18.03GB-1.png

译  名 乔乔的异想世界 / JOJO兔 / 乔乔兔 / 兔嘲男孩(台) / 少年乔乔的异想世界 / 陽光兔仔兵 (港)
片  名 Jojo Rabbit
年  代 2019
产  地 美国 / 捷克 / 新西兰
类  别 剧情 / 喜剧 / 战争
语  言 英语 / 德语
上映日期 2019-09-08(多伦多电影节) / 2019-11-08(美国) / 2020(中国大陆)
IMDb评分  8.0/10 from 88626 users
IMDb链接  https://www.imdb.com/title/tt2584384
豆瓣评分 8.4/10 from 44333 users
豆瓣链接 https://movie.douban.com/subject/30170546/
片  长 108分钟
导  演 塔伊加·维迪提 Taika Waititi
编  剧 塔伊加·维迪提 Taika Waititi / 克里斯汀·勒南斯 Christine Leunens
主  演 罗曼·格里芬·戴维斯 Roman Griffin Davis
       托马辛·麦肯齐 Thomasin McKenzie
       斯嘉丽·约翰逊 Scarlett Johansson
       塔伊加·维迪提 Taika Waititi
       山姆·洛克威尔 Sam Rockwell
       蕾蓓尔·威尔森 Rebel Wilson
       阿尔菲·艾伦 Alfie Allen
       斯戴芬·莫昌特 Stephen Merchant
       阿奇·耶茨 Archie Yates
       卢克·布兰登·菲尔德 Luke Brandon Field
       山姆·海加斯 Sam Haygarth
       史丹斯拉夫·卡拉斯 Stanislav Callas
       乔·温特劳布 Joe Weintraub
       布莱恩·卡斯佩 Brian Caspe
       加布里埃尔·安德鲁斯 Gabriel Andrews
       罗伯特·伊斯特 Robert East
       比利·雷纳 Billy Rayner
       克里斯蒂安·豪林斯 Christian Howlings
       吉尔比·格里芬·戴维斯 Gilby Griffin Davis
       哈迪·格里芬·戴维斯 Hardy Griffin Davis
       柯蒂斯·马修 Curtis Matthew
       贝萨尼·亚当斯 Bethany Adams
       朱迪思·乔治 Judith Georgi
       维多利亚·霍根 Victoria Hogan


标  签 二战 | 喜剧 | 战争 | 美国 | 德国 | 剧情 | 奇幻 | 2019

简  介  

  二战时期,男孩乔乔(戴维斯)和母亲(斯嘉丽)生活在纳粹德国统治下,他不知道母亲在家中藏着一个犹太女孩(麦肯齐),而母亲秘密为抵抗军工作。乔乔渴望加入希特勒青年团,他脑内出了一个颠覆版的希特勒,这个希特勒有魅力、傻傻的、天真可爱,是他的朋友,帮助他应付生活中的困境。

获奖情况  

  第92届奥斯卡金像奖(2020)
  最佳影片(提名) 塔伊加·维迪提 / Carthew Neal
  最佳女配角(提名) 斯嘉丽·约翰逊
  最佳改编剧本(提名) 塔伊加·维迪提
  最佳剪辑(提名) 汤姆·伊格尔斯
  最佳艺术指导(提名)
  最佳服装设计(提名) 玛耶斯·C·鲁贝奥

  第77届金球奖(2020)
  电影类 最佳音乐/喜剧片(提名)
  电影类 音乐/喜剧片最佳男主角(提名) 罗曼·格里芬·戴维斯

  第73届英国电影学院奖(2020)
  电影奖 最佳女配角(提名) 斯嘉丽·约翰逊
  电影奖 最佳改编剧本 塔伊加·维迪提
  电影奖 最佳剪辑(提名) 汤姆·伊格尔斯
  电影奖 最佳服装设计(提名) 玛耶斯·C·鲁贝奥
  电影奖 最佳艺术指导(提名) 拉·文森特 / Nora Sopková
  电影奖 最佳原创配乐(提名) 迈克·吉亚奇诺

  第44届多伦多国际电影节(2019)
  观众选择奖 塔伊加·维迪提

  第72届美国导演工会奖(2020)
  最佳电影导演(提名) 塔伊加·维迪提

  第26届美国演员工会奖(2020)
  电影奖 最佳女配角(提名) 斯嘉丽·约翰逊
  电影奖 最佳群戏(提名)

  第72届美国编剧工会奖(2020)
  电影奖 最佳改编剧本 塔伊加·维迪提

  第31届美国制片人工会奖(2020)
  最佳电影制片人奖(提名)

  第70届美国剪辑工会奖(2020)
  音乐/喜剧片最佳剪辑 汤姆·伊格尔斯

  第24届美国艺术指导工会奖(2020)
  电影奖 最佳历史电影艺术指导(提名) 拉·文森特

  第22届美国服装设计工会奖(2020)
  年代电影最佳服装设计 玛耶斯·C·鲁贝奥

  第67届美国音效剪辑协会奖(2020)
  金卷轴奖 最佳电影对白剪辑(提名)

  第91届美国国家评论协会奖(2019)
  年度佳片

  第25届美国评论家选择电影奖(2020)
  最佳影片(提名)
  最佳女配角(提名) 斯嘉丽·约翰逊
  最佳青少年演员 罗曼·格里芬·戴维斯
  最佳青少年演员(提名) 托马辛·麦肯齐 / 阿奇·耶茨
  最佳喜剧片(提名)
  最佳改编剧本(提名) 塔伊加·维迪提

  第20届美国电影学会奖(2019)
  年度佳片

  第24届金卫星奖(2020)
  电影部门 喜剧/音乐片最佳男主角(提名) 塔伊加·维迪提
  电影部门 最佳改编剧本(提名) 塔伊加·维迪提

  第23届好莱坞电影奖(2019)
  年度摄影奖 小米哈伊·马拉米尔
  年度艺术指导 拉·文森特

  第18届华盛顿影评人协会奖(2019)
  最佳青少年表演 罗曼·格里芬·戴维斯

  第40届伦敦影评人协会奖(2020)
  年度英国/爱尔兰小演员(提名) 罗曼·格里芬·戴维斯

  第32届芝加哥影评人协会奖(2019)
  最佳改编剧本(提名) 塔伊加·维迪提
  最具潜力演员(提名) 罗曼·格里芬·戴维斯

  第23届美国在线影评人协会奖(2020)
  最佳影片(提名)
  最佳改编剧本(提名) 塔伊加·维迪提

  1. Video
  2. ID                                       : 1
  3. Format                                   : HEVC
  4. Format/Info                              : High Efficiency Video Coding
  5. Format profile                           : Main 10@L5.1@High
  6. HDR format                               : SMPTE ST 2086, HDR10 compatible
  7. Codec ID                                 : V_MPEGH/ISO/HEVC
  8. Duration                                 : 1 h 48 min
  9. Bit rate                                 : 19.7 Mb/s
  10. Width                                    : 3 840 pixels
  11. Height                                   : 2 076 pixels
  12. Display aspect ratio                     : 1.85:1
  13. Frame rate mode                          : Constant
  14. Frame rate                               : 23.976 (24000/1001) FPS
  15. Color space                              : YUV
  16. Chroma subsampling                       : 4:2:0 (Type 2)
  17. Bit depth                                : 10 bits
  18. Bits/(Pixel*Frame)                       : 0.103
  19. Stream size                              : 14.9 GiB (83%)
  20. Title                                    : Jojo.Rabbit.2019.2160p.UHD.BluRay.x265.10bit.HDR.DTS-HD.MA.5.1-SWTYBLZ
  21. Writing library                          : x265 3.2+23-52135ffd9bcd:[Windows][GCC 9.2.1][64 bit] 10bit
  22. Encoding settings                        : cpuid=1176575 / frame-threads=6 / numa-pools=36 / wpp / no-pmode / no-pme / no-psnr / no-ssim / log-level=2 / input-csp=1 / input-res=3840x2076 / interlace=0 / total-frames=155928 / level-idc=51 / high-tier=1 / uhd-bd=0 / ref=4 / no-allow-non-conformance / repeat-headers / annexb / aud / hrd / info / hash=0 / no-temporal-layers / no-open-gop / min-keyint=1 / keyint=24 / gop-lookahead=0 / bframes=4 / b-adapt=2 / b-pyramid / bframe-bias=0 / rc-lookahead=25 / lookahead-slices=4 / scenecut=40 / hist-scenecut=0 / radl=0 / no-splice / no-intra-refresh / ctu=64 / min-cu-size=8 / rect / no-amp / max-tu-size=32 / tu-inter-depth=1 / tu-intra-depth=1 / limit-tu=0 / rdoq-level=2 / dynamic-rd=0.00 / no-ssim-rd / signhide / no-tskip / nr-intra=0 / nr-inter=0 / no-constrained-intra / no-strong-intra-smoothing / max-merge=3 / limit-refs=3 / limit-modes / me=3 / subme=3 / merange=57 / temporal-mvp / no-frame-dup / no-hme / weightp / no-weightb / no-analyze-src-pics / deblock=-3:-3 / no-sao / no-sao-non-deblock / rd=4 / selective-sao=0 / no-early-skip / rskip / no-fast-intra / no-tskip-fast / no-cu-lossless / no-b-intra / no-splitrd-skip / rdpenalty=0 / psy-rd=2.00 / psy-rdoq=1.00 / no-rd-refine / no-lossless / cbqpoffs=0 / crqpoffs=0 / rc=crf / crf=17.0 / qcomp=0.60 / qpstep=4 / stats-write=0 / stats-read=0 / vbv-maxrate=160000 / vbv-bufsize=160000 / vbv-init=0.9 / crf-max=0.0 / crf-min=0.0 / ipratio=1.40 / pbratio=1.30 / aq-mode=1 / aq-strength=1.00 / cutree / zone-count=0 / no-strict-cbr / qg-size=32 / no-rc-grain / qpmax=69 / qpmin=0 / no-const-vbv / sar=1 / overscan=0 / videoformat=5 / range=0 / colorprim=9 / transfer=16 / colormatrix=9 / chromaloc=1 / chromaloc-top=2 / chromaloc-bottom=2 / display-window=0 / master-display=G(13250,34500)B(7500,3000)R(34000,16000)WP(15635,16450)L(10000000,50) / cll=0,0 / min-luma=0 / max-luma=1023 / log2-max-poc-lsb=8 / vui-timing-info / vui-hrd-info / slices=1 / no-opt-qp-pps / no-opt-ref-list-length-pps / no-multi-pass-opt-rps / scenecut-bias=0.05 / hist-threshold=0.01 / no-opt-cu-delta-qp / no-aq-motion / hdr / hdr-opt / no-dhdr10-opt / no-idr-recovery-sei / analysis-reuse-level=5 / scale-factor=0 / refine-intra=0 / refine-inter=0 / refine-mv=1 / refine-ctu-distortion=0 / no-limit-sao / ctu-info=0 / no-lowpass-dct / refine-analysis-type=0 / copy-pic=1 / max-ausize-factor=1.0 / no-dynamic-refine / no-single-sei / no-hevc-aq / no-svt / no-field / qp-adaptation-range=1.00 / no-scenecut-aware-qp
  23. Language                                 : English
  24. Default                                  : Yes
  25. Forced                                   : No
  26. Color range                              : Limited
  27. Color primaries                          : BT.2020
  28. Transfer characteristics                 : PQ
  29. Matrix coefficients                      : BT.2020 non-constant
  30. Mastering display color primaries        : Display P3
  31. Mastering display luminance              : min: 0.0050 cd/m2, max: 1000 cd/m2

  32. Audio #1
  33. ID                                       : 2
  34. Format                                   : DTS XLL
  35. Format/Info                              : Digital Theater Systems
  36. Commercial name                          : DTS-HD Master Audio
  37. Codec ID                                 : A_DTS
  38. Duration                                 : 1 h 48 min
  39. Bit rate mode                            : Variable
  40. Bit rate                                 : 3 341 kb/s
  41. Channel(s)                               : 6 channels
  42. Channel layout                           : C L R Ls Rs LFE
  43. Sampling rate                            : 48.0 kHz
  44. Frame rate                               : 93.750 FPS (512 SPF)
  45. Bit depth                                : 24 bits
  46. Compression mode                         : Lossless
  47. Stream size                              : 2.53 GiB (14%)
  48. Title                                    : Jojo.Rabbit.2019.2160p.UHD.BluRay.x265.10bit.HDR.DTS-HD.MA.5.1-SWTYBLZ
  49. Language                                 : English
  50. Default                                  : Yes
  51. Forced                                   : No

  52. Audio #2
  53. ID                                       : 3
  54. Format                                   : AC-3
  55. Format/Info                              : Audio Coding 3
  56. Commercial name                          : Dolby Digital
  57. Codec ID                                 : A_AC3
  58. Duration                                 : 1 h 48 min
  59. Bit rate mode                            : Constant
  60. Bit rate                                 : 640 kb/s
  61. Channel(s)                               : 6 channels
  62. Channel layout                           : L R C LFE Ls Rs
  63. Sampling rate                            : 48.0 kHz
  64. Frame rate                               : 31.250 FPS (1536 SPF)
  65. Bit depth                                : 16 bits
  66. Compression mode                         : Lossy
  67. Stream size                              : 496 MiB (3%)
  68. Title                                    : Jojo.Rabbit.2019.2160p.UHD.BluRay.x265.10bit.HDR.DTS-HD.MA.5.1-SWTYBLZ
  69. Language                                 : English
  70. Service kind                             : Complete Main
  71. Default                                  : No
  72. Forced                                   : No

  73. Text #1
  74. ID                                       : 4
  75. Format                                   : UTF-8
  76. Codec ID                                 : S_TEXT/UTF8
  77. Codec ID/Info                            : UTF-8 Plain Text
  78. Duration                                 : 1 h 45 min
  79. Bit rate                                 : 62 b/s
  80. Count of elements                        : 1633
  81. Stream size                              : 48.2 KiB (0%)
  82. Title                                    : English-SRT
  83. Language                                 : English
  84. Default                                  : Yes
  85. Forced                                   : No

  86. Text #2
  87. ID                                       : 5
  88. Format                                   : PGS
  89. Muxing mode                              : zlib
  90. Codec ID                                 : S_HDMV/PGS
  91. Codec ID/Info                            : Picture based subtitle format used on BDs/HD-DVDs
  92. Duration                                 : 1 h 48 min
  93. Bit rate                                 : 40.7 kb/s
  94. Count of elements                        : 3588
  95. Stream size                              : 31.5 MiB (0%)
  96. Title                                    : English-SDH-PGS
  97. Language                                 : English
  98. Default                                  : No
  99. Forced                                   : No

  100. Text #3
  101. ID                                       : 6
  102. Format                                   : PGS
  103. Muxing mode                              : zlib
  104. Codec ID                                 : S_HDMV/PGS
  105. Codec ID/Info                            : Picture based subtitle format used on BDs/HD-DVDs
  106. Duration                                 : 1 h 47 min
  107. Bit rate                                 : 33.8 kb/s
  108. Count of elements                        : 2910
  109. Stream size                              : 26.0 MiB (0%)
  110. Title                                    : Spanish-PGS
  111. Language                                 : Spanish
  112. Default                                  : No
  113. Forced                                   : No

  114. Text #4
  115. ID                                       : 7
  116. Format                                   : PGS
  117. Muxing mode                              : zlib
  118. Codec ID                                 : S_HDMV/PGS
  119. Codec ID/Info                            : Picture based subtitle format used on BDs/HD-DVDs
  120. Duration                                 : 1 h 47 min
  121. Bit rate                                 : 35.5 kb/s
  122. Count of elements                        : 2864
  123. Stream size                              : 27.4 MiB (0%)
  124. Title                                    : French-PGS
  125. Language                                 : French
  126. Default                                  : No
  127. Forced                                   : No

  128. Text #5
  129. ID                                       : 8
  130. Format                                   : PGS
  131. Muxing mode                              : zlib
  132. Codec ID                                 : S_HDMV/PGS
  133. Codec ID/Info                            : Picture based subtitle format used on BDs/HD-DVDs
  134. Duration                                 : 24 min 56 s
  135. Bit rate                                 : 593 b/s
  136. Count of elements                        : 12
  137. Stream size                              : 108 KiB (0%)
  138. Title                                    : Spanish-PGS
  139. Language                                 : Spanish
  140. Default                                  : No
  141. Forced                                   : No

  142. Text #6
  143. ID                                       : 9
  144. Format                                   : PGS
  145. Muxing mode                              : zlib
  146. Codec ID                                 : S_HDMV/PGS
  147. Codec ID/Info                            : Picture based subtitle format used on BDs/HD-DVDs
  148. Duration                                 : 1 h 44 min
  149. Bit rate                                 : 126 b/s
  150. Count of elements                        : 12
  151. Stream size                              : 96.1 KiB (0%)
  152. Title                                    : French-PGS
  153. Language                                 : French
  154. Default                                  : No
  155. Forced                                   : No

  156. Menu
  157. 00:00:00.000                             : en:Chapter 01
  158. 00:06:04.906                             : en:Chapter 02
  159. 00:09:25.523                             : en:Chapter 03
  160. 00:13:34.522                             : en:Chapter 04
  161. 00:16:17.059                             : en:Chapter 05
  162. 00:20:09.333                             : en:Chapter 06
  163. 00:27:09.461                             : en:Chapter 07
  164. 00:31:02.861                             : en:Chapter 08
  165. 00:36:30.146                             : en:Chapter 09
  166. 00:39:45.967                             : en:Chapter 10
  167. 00:44:13.192                             : en:Chapter 11
  168. 00:49:53.782                             : en:Chapter 12
  169. 00:53:17.194                             : en:Chapter 13
  170. 00:59:35.113                             : en:Chapter 14
  171. 01:03:34.019                             : en:Chapter 15
  172. 01:08:32.483                             : en:Chapter 16
  173. 01:14:20.498                             : en:Chapter 17
  174. 01:17:36.485                             : en:Chapter 18
  175. 01:22:13.387                             : en:Chapter 19
  176. 01:26:20.675                             : en:Chapter 20
  177. 01:29:24.901                             : en:Chapter 21
  178. 01:32:28.042                             : en:Chapter 22
  179. 01:37:15.371                             : en:Chapter 23
  180. 01:41:03.015                             : en:Chapter 24
复制代码
232529yh8j83h894gyey99.png 232529lvs8sx8cxhyob088.png 232530nbqxzqhbbsq3n3nc.png



回复

使用道具 举报

发表于 7 天前 | 显示全部楼层
楼主发贴辛苦了,谢谢楼主分享!我觉得蓝光电影网是注册对了!
回复 支持 反对

使用道具 举报

 成长值: 8705

发表于 7 天前 | 显示全部楼层
楼主发贴辛苦了,谢谢楼主分享!
回复 支持 反对

使用道具 举报

发表于 7 天前 | 显示全部楼层

楼主太厉害了!楼主,电影应该很好看我觉得蓝光电影网真是个好地方!
回复 支持 反对

使用道具 举报

发表于 6 天前 | 显示全部楼层

这东西我收了!谢谢楼主!蓝光电影网真好!
回复 支持 反对

使用道具 举报

发表于 5 天前 | 显示全部楼层
谢谢理解你的手机号码发给我也想去看看
回复 支持 反对

使用道具 举报

懒得打字嘛,点击右侧快捷回复 【右侧内容,后台自定义】
您需要登录后才可以回帖 登录 | 立即加入

本版积分规则

现在加入蓝光电影网,注册一个账号
上个主题 下个主题 快速回复 收藏帖子 返回列表 客服中心 搜索

手机版|小黑屋| 蓝光电影网 |网站地图 

Copyright © 2015-2019 Comsenz Inc.  Template by 蓝光电影论坛 All Rights Reserved.

Powered by 蓝光电影网 X3.4

特别声明:本站所有资源均由网上收集而来,版权归原影音公司所有,如果侵犯了你的权益,请通知我们,我们会及时删除侵权内容.

快速回复 返回顶部 返回列表