找回密码

蓝光电影网

查看: 18473|回复: 393

[剧情] 极速车王 Ford.v.Ferrari.2019.1080p.BluRay.x264.DTS-HD.MA.7.1-FGT 14.85GB

  [复制链接]

 成长值: 26770

发表于 2020-2-1 18:25:55 | 显示全部楼层 |阅读模式
极速车王 Ford.v.Ferrari.2019.1080p.BluRay.x264.DTS-HD.MA.7.1-FGT 14.85GB-1.png

译  名 极速车王 / Go Like Hell / Kings of the Road / Le Mans '66 / 地狱驾驶 / 极速之王 / 极速传奇:褔特决战法拉利(港) / 福特大战法拉利 / 赛道狂人(台)
片  名 Ford v Ferrari
年  代 2019
产  地 美国 / 法国
类  别 剧情 / 传记 / 运动
语  言 英语 / 意大利语 / 法语 / 日语
上映日期 2019-08-30(特柳赖德电影节) / 2019-11-15(美国)
IMDb评分  8.2/10 from 99717 users
IMDb链接  https://www.imdb.com/title/tt1950186
豆瓣评分 8.5/10 from 31818 users
豆瓣链接 https://movie.douban.com/subject/6538866/
片  长 152分钟
导  演 詹姆斯·曼高德 James Mangold
编  剧 詹姆斯·曼高德 James Mangold / 杰斯·巴特沃斯 Jez Butterworth / 约翰-亨利·巴特沃斯 John-Henry Butterworth / 贾森·凯勒 Jason Keller / A·J·拜梅 A.J. Baime
主  演 马特·达蒙 Matt Damon
       克里斯蒂安·贝尔 Christian Bale
       乔·博恩瑟 Jon Bernthal
       诺亚·尤佩 Noah Jupe
       玛丽萨·佩特罗 Marisa Petroro
       凯特瑞娜·巴尔夫 Caitriona Balfe
       乔什·卢卡斯 Josh Lucas
       雷·迈克金农 Ray McKinnon
       约翰·约瑟夫·菲尔德 JJ Feild
       崔西·莱茨 Tracy Letts
       华莱士·朗翰 Wallace Langham
       乔纳森·拉帕格里拉 Jonathan LaPaglia
       斯特凡 Stefania Spampinato
       鲁道夫·马丁 Rudolf Martin
       拉奇兰·布坎南 Lachlan Buchanan
       瓦德·霍尔顿 Ward Horton
       肖恩·卡里甘 Sean Carrigan
       克里斯托弗·达尔加 Christopher Darga
       亚当·梅菲尔德 Adam Mayfield
       乔瓦尼索罗菲瓦 Giovanni Cirfiera
       乔·威廉森 Joe Williamson
       本杰明·里格比 Benjamin Rigby
       杰克·麦克马伦 Jack McMullen
       保罗·福克斯 Paul Fox
       雷莫·吉罗内 Remo Girone
       德鲁·劳施 Drew Rausch
       朱利安·米勒 Julian Miller
       艾拉姆·奥里安 Aylam Orian
       埃姆利·贝赫什蒂 Emil Beheshti
       蒂芙妮·伊冯娜·考克斯 Tiffany Yvonne Cox
       达林·库珀 Darin Cooper
       科拉多·因韦尔尼齐 Corrado Invernizzi
       特洛伊·迪林格 Troy Dillinger
       彼得·阿佩塞拉 Peter Arpesella
       斯凯勒·马歇尔 Skyler Marshall


标  签 赛车 | 传记 | 美国 | 真实事件改编 | 2019 | 剧情 | 运动 | 动作

简  介  

  基于真实故事,聚焦由汽车设计师卡罗尔·谢尔比带领的一队美国工程师、设计师,以及他旗下的英国车手肯·迈尔斯,亨利·福特二世要求谢尔比打造一辆全新的赛车,希望能在1966年的勒芒世界锦标赛上打败长期占主导地位的法拉利。最终福特GT40在勒芒24小时耐力赛中成功击败法拉利,并蝉联了1967和1968年的冠军。

获奖情况  

  第92届奥斯卡金像奖(2020)
  最佳影片(提名)
  最佳剪辑(提名) 迈克尔·麦卡斯克 / 安德鲁·巴克兰
  最佳混音(提名) David Giammarco / 史蒂文·莫罗 / 保罗·马瑟
  最佳音效剪辑(提名)

  第77届金球奖(2020)
  电影类 剧情片最佳男主角(提名) 克里斯蒂安·贝尔

  第73届英国电影学院奖(2020)
  电影奖 最佳摄影(提名) 芬顿·帕帕迈可
  电影奖 最佳剪辑(提名) 迈克尔·麦卡斯克 / 安德鲁·巴克兰
  电影奖 最佳音效(提名)

  第26届美国演员工会奖(2020)
  电影奖 最佳男主角(提名) 克里斯蒂安·贝尔
  电影最佳特技群戏(提名)

  第31届美国制片人工会奖(2020)
  最佳电影制片人奖(提名)

  第34届美国摄影协会奖(2020)
  电影长片最佳摄影(提名) 芬顿·帕帕迈可

  第70届美国剪辑工会奖(2020)
  剧情片最佳剪辑(提名) 迈克尔·麦卡斯克 / 安德鲁·巴克兰

  第24届美国艺术指导工会奖(2020)
  电影奖 最佳历史电影艺术指导(提名) 弗朗索瓦·奥杜伊

  第67届美国音效剪辑协会奖(2020)
  金卷轴奖 最佳电影音效剪辑
  金卷轴奖 最佳电影对白剪辑(提名)

  第18届美国视觉效果协会奖(2020)
  最佳电影辅助视觉效果(提名)

  第56届美国声音效果协会奖(2020)
  真人电影最佳音效

  第91届美国国家评论协会奖(2019)
  年度佳片

  第25届美国评论家选择电影奖(2020)
  最佳影片(提名)
  最佳动作片(提名)
  最佳摄影(提名)
  最佳剪辑(提名)
  最佳视觉效果(提名)

  第24届金卫星奖(2020)
  电影部门 最佳剧情片(提名)
  电影部门 最佳导演 詹姆斯·曼高德
  电影部门 剧情片最佳男主角 克里斯蒂安·贝尔
  电影部门 最佳原创剧本(提名) 杰斯·巴特沃斯 / 约翰-亨利·巴特沃斯 / 贾森·凯勒
  电影部门 最佳原创配乐(提名)
  电影部门 最佳摄影(提名)
  电影部门 最佳视觉效果(提名)
  电影部门 最佳剪辑
  电影部门 最佳音效
  电影部门 最佳美术指导(提名)

  第23届好莱坞电影奖(2019)
  年度导演 詹姆斯·曼高德
  年度剪辑 迈克尔·麦卡斯克 / 安德鲁·巴克兰
  年度音效 David Giammarco / Donald Sylvester / 史蒂文·莫罗 / 保罗·马瑟

  第18届华盛顿影评人协会奖(2019)
  最佳剪辑

  第40届伦敦影评人协会奖(2020)
  年度英国/爱尔兰小演员(提名) 诺亚·尤佩

  第23届美国在线影评人协会奖(2020)
  最佳剪辑(提名) 迈克尔·麦卡斯克 / 安德鲁·巴克兰
  1. Video
  2. ID                                       : 1
  3. Format                                   : AVC
  4. Format/Info                              : Advanced Video Codec
  5. Format profile                           : High@L4
  6. Format settings                          : CABAC / 5 Ref Frames
  7. Format settings, CABAC                   : Yes
  8. Format settings, Reference frames        : 5 frames
  9. Codec ID                                 : V_MPEG4/ISO/AVC
  10. Duration                                 : 2 h 32 min
  11. Bit rate                                 : 8 730 kb/s
  12. Width                                    : 1 920 pixels
  13. Height                                   : 808 pixels
  14. Display aspect ratio                     : 2.40:1
  15. Frame rate mode                          : Constant
  16. Frame rate                               : 23.976 (24000/1001) FPS
  17. Color space                              : YUV
  18. Chroma subsampling                       : 4:2:0
  19. Bit depth                                : 8 bits
  20. Scan type                                : Progressive
  21. Bits/(Pixel*Frame)                       : 0.235
  22. Stream size                              : 9.30 GiB (63%)
  23. Title                                    : Ford.v.Ferrari.2019.1080p.BluRay.x264.DTS-HD.MA.7.1-FGT
  24. Writing library                          : x264 core 159 r2991 1771b55
  25. Encoding settings                        : cabac=1 / ref=5 / deblock=1:0:0 / analyse=0x3:0x113 / me=umh / subme=8 / psy=1 / psy_rd=1.00:0.00 / mixed_ref=1 / me_range=16 / chroma_me=1 / trellis=1 / 8x8dct=1 / cqm=0 / deadzone=21,11 / fast_pskip=1 / chroma_qp_offset=-2 / threads=16 / lookahead_threads=2 / sliced_threads=0 / nr=0 / decimate=1 / interlaced=0 / bluray_compat=0 / constrained_intra=0 / bframes=3 / b_pyramid=2 / b_adapt=2 / b_bias=0 / direct=3 / weightb=1 / open_gop=0 / weightp=2 / keyint=240 / keyint_min=23 / scenecut=40 / intra_refresh=0 / rc_lookahead=50 / rc=2pass / mbtree=1 / bitrate=8730 / ratetol=1.0 / qcomp=0.60 / qpmin=0 / qpmax=69 / qpstep=4 / cplxblur=20.0 / qblur=0.5 / ip_ratio=1.40 / aq=1:1.00
  26. Default                                  : Yes
  27. Forced                                   : No

  28. Audio
  29. ID                                       : 2
  30. Format                                   : DTS ES XLL
  31. Format/Info                              : Digital Theater Systems
  32. Commercial name                          : DTS-HD Master Audio
  33. Codec ID                                 : A_DTS
  34. Duration                                 : 2 h 32 min
  35. Bit rate mode                            : Variable
  36. Bit rate                                 : 5 158 kb/s
  37. Channel(s)                               : 8 channels
  38. Channel layout                           : C L R Ls Rs LFE Lb Rb
  39. Sampling rate                            : 48.0 kHz
  40. Frame rate                               : 93.750 FPS (512 SPF)
  41. Bit depth                                : 24 bits
  42. Compression mode                         : Lossless
  43. Stream size                              : 5.50 GiB (37%)
  44. Title                                    : Ford.v.Ferrari.2019.1080p.BluRay.x264.DTS-HD.MA.7.1-FGT
  45. Language                                 : English
  46. Default                                  : Yes
  47. Forced                                   : No

  48. Text #1
  49. ID                                       : 3
  50. Format                                   : UTF-8
  51. Codec ID                                 : S_TEXT/UTF8
  52. Codec ID/Info                            : UTF-8 Plain Text
  53. Duration                                 : 1 h 24 min
  54. Bit rate                                 : 0 b/s
  55. Count of elements                        : 9
  56. Stream size                              : 304 Bytes (0%)
  57. Title                                    : English-FORCED-SRT
  58. Language                                 : English
  59. Default                                  : Yes
  60. Forced                                   : Yes

  61. Text #2
  62. ID                                       : 4
  63. Format                                   : UTF-8
  64. Codec ID                                 : S_TEXT/UTF8
  65. Codec ID/Info                            : UTF-8 Plain Text
  66. Duration                                 : 2 h 32 min
  67. Bit rate                                 : 66 b/s
  68. Count of elements                        : 2489
  69. Stream size                              : 73.8 KiB (0%)
  70. Title                                    : English-SRT
  71. Language                                 : English
  72. Default                                  : No
  73. Forced                                   : No

  74. Text #3
  75. ID                                       : 5
  76. Format                                   : PGS
  77. Muxing mode                              : zlib
  78. Codec ID                                 : S_HDMV/PGS
  79. Codec ID/Info                            : Picture based subtitle format used on BDs/HD-DVDs
  80. Duration                                 : 2 h 32 min
  81. Bit rate                                 : 47.0 kb/s
  82. Count of elements                        : 4996
  83. Stream size                              : 51.3 MiB (0%)
  84. Title                                    : English-PGS
  85. Language                                 : English
  86. Default                                  : No
  87. Forced                                   : No

  88. Text #4
  89. ID                                       : 6
  90. Format                                   : PGS
  91. Muxing mode                              : zlib
  92. Codec ID                                 : S_HDMV/PGS
  93. Codec ID/Info                            : Picture based subtitle format used on BDs/HD-DVDs
  94. Duration                                 : 2 h 31 min
  95. Bit rate                                 : 32.9 kb/s
  96. Count of elements                        : 3910
  97. Stream size                              : 35.6 MiB (0%)
  98. Title                                    : Spanish-PGS
  99. Language                                 : Spanish
  100. Default                                  : No
  101. Forced                                   : No

  102. Text #5
  103. ID                                       : 7
  104. Format                                   : PGS
  105. Muxing mode                              : zlib
  106. Codec ID                                 : S_HDMV/PGS
  107. Codec ID/Info                            : Picture based subtitle format used on BDs/HD-DVDs
  108. Duration                                 : 2 h 31 min
  109. Bit rate                                 : 33.8 kb/s
  110. Count of elements                        : 4130
  111. Stream size                              : 36.7 MiB (0%)
  112. Title                                    : French-PGS
  113. Language                                 : French
  114. Default                                  : No
  115. Forced                                   : No

  116. Text #6
  117. ID                                       : 8
  118. Format                                   : PGS
  119. Muxing mode                              : zlib
  120. Codec ID                                 : S_HDMV/PGS
  121. Codec ID/Info                            : Picture based subtitle format used on BDs/HD-DVDs
  122. Duration                                 : 1 h 24 min
  123. Bit rate                                 : 150 b/s
  124. Count of elements                        : 18
  125. Stream size                              : 92.9 KiB (0%)
  126. Title                                    : English-FORCED-PGS
  127. Language                                 : English
  128. Default                                  : No
  129. Forced                                   : No

  130. Text #7
  131. ID                                       : 9
  132. Format                                   : PGS
  133. Muxing mode                              : zlib
  134. Codec ID                                 : S_HDMV/PGS
  135. Codec ID/Info                            : Picture based subtitle format used on BDs/HD-DVDs
  136. Duration                                 : 1 h 24 min
  137. Bit rate                                 : 150 b/s
  138. Count of elements                        : 18
  139. Stream size                              : 92.9 KiB (0%)
  140. Title                                    : English-FORCED-PGS
  141. Language                                 : English
  142. Default                                  : No
  143. Forced                                   : No

  144. Menu
  145. 00:00:00.000                             : en:Chapter 01
  146. 00:04:45.618                             : en:Chapter 02
  147. 00:07:32.535                             : en:Chapter 03
  148. 00:10:02.810                             : en:Chapter 04
  149. 00:15:39.313                             : en:Chapter 05
  150. 00:20:15.172                             : en:Chapter 06
  151. 00:21:39.798                             : en:Chapter 07
  152. 00:26:00.892                             : en:Chapter 08
  153. 00:31:57.874                             : en:Chapter 09
  154. 00:34:09.756                             : en:Chapter 10
  155. 00:39:13.267                             : en:Chapter 11
  156. 00:42:06.899                             : en:Chapter 12
  157. 00:45:57.004                             : en:Chapter 13
  158. 00:48:38.665                             : en:Chapter 14
  159. 00:51:22.079                             : en:Chapter 15
  160. 00:55:03.675                             : en:Chapter 16
  161. 00:57:50.800                             : en:Chapter 17
  162. 01:00:27.040                             : en:Chapter 18
  163. 01:06:33.489                             : en:Chapter 19
  164. 01:11:59.815                             : en:Chapter 20
  165. 01:16:13.777                             : en:Chapter 21
  166. 01:19:30.515                             : en:Chapter 22
  167. 01:24:18.762                             : en:Chapter 23
  168. 01:29:24.984                             : en:Chapter 24
  169. 01:33:16.173                             : en:Chapter 25
  170. 01:38:11.302                             : en:Chapter 26
  171. 01:40:57.468                             : en:Chapter 27
  172. 01:43:23.322                             : en:Chapter 28
  173. 01:45:49.217                             : en:Chapter 29
  174. 01:50:38.965                             : en:Chapter 30
  175. 01:53:38.353                             : en:Chapter 31
  176. 01:57:47.602                             : en:Chapter 32
  177. 02:00:16.667                             : en:Chapter 33
  178. 02:05:22.890                             : en:Chapter 34
  179. 02:09:18.375                             : en:Chapter 35
  180. 02:12:01.496                             : en:Chapter 36
  181. 02:15:26.409                             : en:Chapter 37
  182. 02:18:23.128                             : en:Chapter 38
  183. 02:20:46.438                             : en:Chapter 39
  184. 02:26:27.612                             : en:Chapter 40
复制代码

极速车王 Ford.v.Ferrari.2019.1080p.BluRay.x264.DTS-HD.MA.7.1-FGT 14.85GB-2.png 极速车王 Ford.v.Ferrari.2019.1080p.BluRay.x264.DTS-HD.MA.7.1-FGT 14.85GB-3.png 极速车王 Ford.v.Ferrari.2019.1080p.BluRay.x264.DTS-HD.MA.7.1-FGT 14.85GB-4.png





回复

使用道具 举报

发表于 2020-2-1 18:37:06 | 显示全部楼层
楼主发贴辛苦了,谢谢楼主分享!我觉得蓝光电影网是注册对了!
回复 支持 反对

使用道具 举报

发表于 2020-2-1 18:41:14 | 显示全部楼层

其实我一直觉得楼主的品味不错!呵呵!蓝光电影网太棒了!
回复 支持 反对

使用道具 举报

 成长值: 3520

发表于 2020-2-1 20:55:33 | 显示全部楼层
谢谢楼主无私分享。
回复 支持 反对

使用道具 举报

发表于 2020-2-1 21:10:03 | 显示全部楼层
谢谢楼主无私分享。
回复 支持 反对

使用道具 举报

发表于 2020-2-1 21:25:14 | 显示全部楼层
下载不了?
回复

使用道具 举报

发表于 2020-2-1 22:22:33 | 显示全部楼层
楼主发贴辛苦了,谢谢楼主分享!我觉得蓝光电影网是注册对了
回复 支持 反对

使用道具 举报

发表于 2020-2-1 22:27:13 | 显示全部楼层

其实我一直觉得楼主的品味不错!呵呵!蓝光电影网太棒了!
回复 支持 反对

使用道具 举报

发表于 2020-2-1 22:32:19 | 显示全部楼层
谢谢楼主分享楼主辛苦了
回复 支持 反对

使用道具 举报

已抛锚 成长值: 310

发表于 2020-2-1 22:32:34 | 显示全部楼层
楼主发贴辛苦了,谢谢楼主
回复 支持 反对

使用道具 举报

懒得打字嘛,点击右侧快捷回复 【右侧内容,后台自定义】
您需要登录后才可以回帖 登录 | 立即加入

本版积分规则

上个主题 下个主题 快速回复 收藏帖子 返回列表 客服中心 搜索
现在加入蓝光电影网,注册一个账号

手机版|小黑屋| 蓝光电影网  |网站地图

Copyright © 2015-2019 Comsenz Inc.  Template by 蓝光电影论坛 All Rights Reserved.

Powered by 蓝光电影网 X3.4

特别声明:本站所有资源均由网上收集而来,版权归原影音公司所有,如果侵犯了你的权益,请通知我们,我们会及时删除侵权内容.

快速回复 返回顶部 返回列表