找回密码

蓝光电影网

查看: 12049|回复: 228

[剧情片] 决战中途岛 Midway.2019.1080p.HDRip.AAC2.0.x264-STUTTERSHIT 3.94GB

  [复制链接]

 成长值: 26695

发表于 2020-1-20 14:13:20 | 显示全部楼层 |阅读模式
决战中途岛 Midway.2019.1080p.HDRip.AAC2.0.x264-STUTTERSHIT 3.94GB-1.png

译  名 决战中途岛 / Battle of the Midway / 中途岛 / 中途岛战役 / 中途岛海战
片  名 Midway
年  代 2019
产  地 中国大陆 / 美国
类  别 剧情 / 历史 / 战争
语  言 英语
上映日期 2019-11-08(美国/中国大陆)
IMDb评分  6.9/10 from 18207 users
IMDb链接  https://www.imdb.com/title/tt6924650
豆瓣评分 7.8/10 from 94103 users
豆瓣链接 https://movie.douban.com/subject/26786669/
片  长 138分钟
导  演 罗兰·艾默里奇 Roland Emmerich
编  剧 韦斯·图克 Wes Tooke
主  演 艾德·斯克林 Ed Skrein
       帕特里克·威尔森 Patrick Wilson
       伍迪·哈里森 Woody Harrelson
       卢克·伊万斯 Luke Evans
       丹尼斯·奎德 Dennis Quaid
       曼迪·摩尔 Mandy Moore
       亚历山大·路德韦格 Alexander Ludwig
       艾伦·艾克哈特 Aaron Eckhart
       达伦·克里斯 Darren Criss
       尼克·乔纳斯 Nick Jonas
       卢克·克莱恩坦克 Luke Kleintank
       杰克·韦伯 Jake Weber
       基恩·约翰逊 Keean Johnson
       浅野忠信 Tadanobu Asano
       大卫·休莱特 David Hewlett
       马克·罗斯顿 Mark Rolston
       布雷南·布朗 Brennan Brown
       詹姆斯·卡佩内罗 James Carpinello
       马修·麦考尔 Matthew MacCaull
       格雷格·霍瓦尼西安 Greg Hovanessian
       杰克·曼利 Jake Manley
       杰弗里·布莱克 Geoffrey Blake
       瑞秋·佩雷尔·佛斯基特 Rachael Perrell Fosket
       卡梅伦·布罗德 Cameron Brodeur
       杰克博·布莱尔 Jacob Blair
       克里斯蒂·布鲁克 Christie Brooke
       国村隼 Jun Kunimura
       泰勒·艾略特·伯克 Tyler Elliot Burke
       丰川悦司 Etsushi Toyokawa
       艾梅伯·瓦尔斯 Amber Walls
       莫妮卡·比卡罗娃 Monika Bicarova
       托尼·克里斯托弗 Tony Christopher
       加雷特·佐藤 Garret Sato
       罗伯特·克鲁克斯 Robert Crooks
       埃里克·戴维斯 Eric Davis
       托马斯?瓦利埃 Thomas Vallieres
       约翰·洛巴托 John Lobato
       迪索·拉莫斯 Diezel Ramos
       Kenny Leu


标  签 二战 | 战争 | 美国 | 历史 | 海战 | 真实事件改编 | 日本 | 2019

简  介  

  电影讲述的是第二次世界大战太平洋战争重要转折点——中途岛海战:经此一役,日本海军受到“降维打击”,美日海上实力反转,从而扭转了整个太平洋战场的局势。影片通过参战士兵和飞行员一个个鲜活的故事,带领观众逐步进入1942年6月初发生在太平洋中途岛附近那场令人难以置信的战争……
  1. Video
  2. ID                                       : 1
  3. Format                                   : AVC
  4. Format/Info                              : Advanced Video Codec
  5. Format profile                           : High@L4
  6. Format settings                          : CABAC / 4 Ref Frames
  7. Format settings, CABAC                   : Yes
  8. Format settings, Reference frames        : 4 frames
  9. Codec ID                                 : V_MPEG4/ISO/AVC
  10. Duration                                 : 2 h 16 min
  11. Bit rate                                 : 3 885 kb/s
  12. Width                                    : 1 920 pixels
  13. Height                                   : 856 pixels
  14. Display aspect ratio                     : 2.25:1
  15. Frame rate mode                          : Constant
  16. Frame rate                               : 24.000 FPS
  17. Color space                              : YUV
  18. Chroma subsampling                       : 4:2:0
  19. Bit depth                                : 8 bits
  20. Scan type                                : Progressive
  21. Bits/(Pixel*Frame)                       : 0.098
  22. Stream size                              : 3.69 GiB (94%)
  23. Title                                    : Midway.2019.1080p.HDRip.AAC2.0.x264-STUTTERSHIT
  24. Language                                 : English
  25. Default                                  : Yes
  26. Forced                                   : No
  27. Color range                              : Limited
  28. Color primaries                          : BT.709
  29. Transfer characteristics                 : BT.709
  30. Matrix coefficients                      : BT.709

  31. Audio
  32. ID                                       : 2
  33. Format                                   : AAC LC
  34. Format/Info                              : Advanced Audio Codec Low Complexity
  35. Codec ID                                 : A_AAC-2
  36. Duration                                 : 2 h 16 min
  37. Bit rate                                 : 256 kb/s
  38. Channel(s)                               : 2 channels
  39. Channel layout                           : L R
  40. Sampling rate                            : 48.0 kHz
  41. Frame rate                               : 46.875 FPS (1024 SPF)
  42. Compression mode                         : Lossy
  43. Stream size                              : 249 MiB (6%)
  44. Title                                    : Midway.2019.1080p.HDRip.AAC2.0.x264-STUTTERSHIT
  45. Language                                 : English
  46. Default                                  : Yes
  47. Forced                                   : No

  48. Text
  49. ID                                       : 3
  50. Format                                   : UTF-8
  51. Codec ID                                 : S_TEXT/UTF8
  52. Codec ID/Info                            : UTF-8 Plain Text
  53. Duration                                 : 2 h 6 min
  54. Bit rate                                 : 41 b/s
  55. Count of elements                        : 1397
  56. Stream size                              : 38.8 KiB (0%)
  57. Language                                 : English
  58. Default                                  : Yes
  59. Forced                                   : No
复制代码

决战中途岛 Midway.2019.1080p.HDRip.AAC2.0.x264-STUTTERSHIT 3.94GB-2.png 决战中途岛 Midway.2019.1080p.HDRip.AAC2.0.x264-STUTTERSHIT 3.94GB-3.png 决战中途岛 Midway.2019.1080p.HDRip.AAC2.0.x264-STUTTERSHIT 3.94GB-4.png






回复

使用道具 举报

发表于 2020-1-20 15:22:18 | 显示全部楼层
我要下载,
回复

使用道具 举报

发表于 2020-1-20 15:35:57 | 显示全部楼层

其实我一直觉得楼主的品味不错!呵呵!蓝光电影网太棒了!
回复 支持 反对

使用道具 举报

发表于 2020-1-20 16:11:46 | 显示全部楼层
好看的电影
回复 支持 反对

使用道具 举报

发表于 2020-1-20 16:48:57 | 显示全部楼层
文件有点小,适合手机上观看。
回复 支持 反对

使用道具 举报

 成长值: 3685

发表于 2020-1-20 17:12:04 | 显示全部楼层
中文字幕没有呀
回复 支持 反对

使用道具 举报

 成长值: 3685

发表于 2020-1-20 17:12:07 | 显示全部楼层
中文字幕没有呀
回复 支持 反对

使用道具 举报

 成长值: 3275

发表于 2020-1-20 18:52:07 | 显示全部楼层

感谢楼主的无私分享!要想蓝光电影网好 就靠你我他
回复 支持 反对

使用道具 举报

发表于 2020-1-20 19:07:58 | 显示全部楼层

这东西我收了!谢谢楼主!蓝光电影网真好!
回复 支持 反对

使用道具 举报

发表于 2020-1-20 19:12:49 | 显示全部楼层
感谢分享!
回复

使用道具 举报

懒得打字嘛,点击右侧快捷回复 【右侧内容,后台自定义】
您需要登录后才可以回帖 登录 | 立即加入

本版积分规则

上个主题 下个主题 快速回复 收藏帖子 返回列表 客服中心 搜索
现在加入蓝光电影网,注册一个账号

手机版|小黑屋| 蓝光电影网  |网站地图

Copyright © 2015-2019 Comsenz Inc.  Template by 蓝光电影论坛 All Rights Reserved.

Powered by 蓝光电影网 X3.4

特别声明:本站所有资源均由网上收集而来,版权归原影音公司所有,如果侵犯了你的权益,请通知我们,我们会及时删除侵权内容.

快速回复 返回顶部 返回列表