找回密码

蓝光电影网

查看: 827|回复: 14

[惊悚] 倒忌时/倒数计死 Countdown.2019.1080p.BluRay.x264.DTS-HD.MA.5.1-FGT 7.75GB

[复制链接]

 成长值: 27235

发表于 2020-1-16 16:31:44 | 显示全部楼层 |阅读模式
倒忌时/倒数计死 Countdown.2019.1080p.BluRay.x264.DTS-HD.MA.5.1-FGT 7.75GB-1.png

译  名 倒忌时 / 倒数计死(台) / 倒计时 / 死期倒计时 / 索命倒数(港)
片  名 Countdown
年  代 2019
产  地 美国
类  别 惊悚 / 恐怖
语  言 英语
上映日期 2019-10-25(美国)
IMDb评分  5.3/10 from 7334 users
IMDb链接  https://www.imdb.com/title/tt10039344
豆瓣评分 6.0/10 from 3392 users
豆瓣链接 https://movie.douban.com/subject/33381474/
片  长 90分钟
导  演 贾斯汀·戴克 Justin Dec
编  剧 贾斯汀·戴克 Justin Dec
主  演 伊丽莎白·莱尔 Elizabeth Lail
       乔丹·考维 Jordan Calloway
       特丽莎·贝特曼 Talitha Bateman
       彼得·费辛利 Peter Facinelli
       蒂琪娜·阿诺 Tichina Arnold
       汤姆·赛格拉 Tom Segura
       拉娜·麦基萨克 Lana McKissack
       安妮·文特斯 Anne Winters
       马特·莱斯切尔 Matt Letscher
       P·J·伯恩 P.J. Byrne
       维勒特·罗德里格斯 Valente Rodriguez
       查利·麦克德莫特 Charlie McDermott
       布瑞特·伦茨勒 Britt Rentschler
       安德利娅·安德斯 Andrea Anders
       威洛·黑尔 Willow Hale
       马里亚诺·门多萨 Mariano Mendoza
       奥斯汀·扎祖尔 Austin Zajur


标  签 恐怖 | 惊悚 | 美国 | 2019 | 悬疑 | 手机 | 网络 | 社交

简  介  

  当一名护士下载一个声称可以预测一个人死亡时间的应用时,它告诉她,她仅剩三天的生命。 随着时间的流逝、未知的某人/物阴魂不散,她必须在时间耗尽之前找到一种方法来自救。
  1. Video
  2. ID                                       : 1
  3. Format                                   : AVC
  4. Format/Info                              : Advanced Video Codec
  5. Format profile                           : High@L4
  6. Format settings                          : CABAC / 5 Ref Frames
  7. Format settings, CABAC                   : Yes
  8. Format settings, Reference frames        : 5 frames
  9. Codec ID                                 : V_MPEG4/ISO/AVC
  10. Duration                                 : 1 h 30 min
  11. Bit rate                                 : 8 838 kb/s
  12. Width                                    : 1 920 pixels
  13. Height                                   : 808 pixels
  14. Display aspect ratio                     : 2.40:1
  15. Frame rate mode                          : Constant
  16. Frame rate                               : 23.976 (24000/1001) FPS
  17. Color space                              : YUV
  18. Chroma subsampling                       : 4:2:0
  19. Bit depth                                : 8 bits
  20. Scan type                                : Progressive
  21. Bits/(Pixel*Frame)                       : 0.238
  22. Stream size                              : 5.59 GiB (72%)
  23. Title                                    : Countdown.2019.1080p.BluRay.x264.DTS-HD.MA.5.1-FGT
  24. Writing library                          : x264 core 157 r2969 d4099dd
  25. Encoding settings                        : cabac=1 / ref=5 / deblock=1:0:0 / analyse=0x3:0x113 / me=umh / subme=8 / psy=1 / psy_rd=1.00:0.00 / mixed_ref=1 / me_range=16 / chroma_me=1 / trellis=1 / 8x8dct=1 / cqm=0 / deadzone=21,11 / fast_pskip=1 / chroma_qp_offset=-2 / threads=16 / lookahead_threads=2 / sliced_threads=0 / nr=0 / decimate=1 / interlaced=0 / bluray_compat=0 / constrained_intra=0 / bframes=3 / b_pyramid=2 / b_adapt=2 / b_bias=0 / direct=3 / weightb=1 / open_gop=0 / weightp=2 / keyint=240 / keyint_min=23 / scenecut=40 / intra_refresh=0 / rc_lookahead=50 / rc=2pass / mbtree=1 / bitrate=8838 / ratetol=1.0 / qcomp=0.60 / qpmin=0 / qpmax=69 / qpstep=4 / cplxblur=20.0 / qblur=0.5 / ip_ratio=1.40 / aq=1:1.00
  26. Default                                  : Yes
  27. Forced                                   : No

  28. Audio
  29. ID                                       : 2
  30. Format                                   : DTS XLL
  31. Format/Info                              : Digital Theater Systems
  32. Commercial name                          : DTS-HD Master Audio
  33. Codec ID                                 : A_DTS
  34. Duration                                 : 1 h 30 min
  35. Bit rate mode                            : Variable
  36. Bit rate                                 : 3 363 kb/s
  37. Channel(s)                               : 6 channels
  38. Channel layout                           : C L R Ls Rs LFE
  39. Sampling rate                            : 48.0 kHz
  40. Frame rate                               : 93.750 FPS (512 SPF)
  41. Bit depth                                : 24 bits
  42. Compression mode                         : Lossless
  43. Stream size                              : 2.13 GiB (28%)
  44. Title                                    : Countdown.2019.1080p.BluRay.x264.DTS-HD.MA.5.1-FGT
  45. Language                                 : English
  46. Default                                  : Yes
  47. Forced                                   : No

  48. Text #1
  49. ID                                       : 3
  50. Format                                   : UTF-8
  51. Codec ID                                 : S_TEXT/UTF8
  52. Codec ID/Info                            : UTF-8 Plain Text
  53. Duration                                 : 1 h 23 min
  54. Bit rate                                 : 53 b/s
  55. Count of elements                        : 1096
  56. Stream size                              : 32.7 KiB (0%)
  57. Title                                    : English-SRT
  58. Language                                 : English
  59. Default                                  : Yes
  60. Forced                                   : No

  61. Text #2
  62. ID                                       : 4
  63. Format                                   : PGS
  64. Muxing mode                              : zlib
  65. Codec ID                                 : S_HDMV/PGS
  66. Codec ID/Info                            : Picture based subtitle format used on BDs/HD-DVDs
  67. Duration                                 : 1 h 24 min
  68. Bit rate                                 : 41.7 kb/s
  69. Count of elements                        : 2569
  70. Stream size                              : 25.2 MiB (0%)
  71. Title                                    : English-PGS
  72. Language                                 : English
  73. Default                                  : No
  74. Forced                                   : No

  75. Text #3
  76. ID                                       : 5
  77. Format                                   : PGS
  78. Muxing mode                              : zlib
  79. Codec ID                                 : S_HDMV/PGS
  80. Codec ID/Info                            : Picture based subtitle format used on BDs/HD-DVDs
  81. Duration                                 : 1 h 29 min
  82. Bit rate                                 : 30.7 kb/s
  83. Count of elements                        : 2266
  84. Stream size                              : 19.7 MiB (0%)
  85. Title                                    : Spanish-PGS
  86. Language                                 : Spanish
  87. Default                                  : No
  88. Forced                                   : No

  89. Menu
  90. 00:00:00.000                             : en:Chapter 01
  91. 00:03:14.652                             : en:Chapter 02
  92. 00:08:06.944                             : en:Chapter 03
  93. 00:14:14.937                             : en:Chapter 04
  94. 00:18:02.998                             : en:Chapter 05
  95. 00:24:23.086                             : en:Chapter 06
  96. 00:31:47.697                             : en:Chapter 07
  97. 00:35:37.218                             : en:Chapter 08
  98. 00:39:21.734                             : en:Chapter 09
  99. 00:44:15.736                             : en:Chapter 10
  100. 00:47:26.176                             : en:Chapter 11
  101. 00:50:52.799                             : en:Chapter 12
  102. 00:55:49.095                             : en:Chapter 13
  103. 00:59:31.985                             : en:Chapter 14
  104. 01:07:00.808                             : en:Chapter 15
  105. 01:09:26.412                             : en:Chapter 16
  106. 01:15:02.456                             : en:Chapter 17
  107. 01:20:53.890                             : en:Chapter 18
  108. 01:22:54.260                             : en:Chapter 19
  109. 01:24:04.956                             : en:Chapter 20
复制代码

163059ukbqq67kjldxqd7g.png 倒忌时/倒数计死 Countdown.2019.1080p.BluRay.x264.DTS-HD.MA.5.1-FGT 7.75GB-3.png 倒忌时/倒数计死 Countdown.2019.1080p.BluRay.x264.DTS-HD.MA.5.1-FGT 7.75GB-4.png






回复

使用道具 举报

发表于 2020-1-16 17:04:54 | 显示全部楼层
楼主发贴辛苦了,谢谢楼主分享!我觉得蓝光电影网是注册对了!
回复 支持 反对

使用道具 举报

发表于 2020-1-16 17:35:38 | 显示全部楼层
生死时速,与死神赛跑啊!
回复 支持 反对

使用道具 举报

发表于 2020-1-17 00:03:34 | 显示全部楼层
楼主发贴辛苦了,谢谢楼主分享!我觉得蓝光电影网是注册对了!
回复 支持 反对

使用道具 举报

发表于 2020-1-17 00:15:16 | 显示全部楼层
Thanks for sharing
回复 支持 反对

使用道具 举报

发表于 2020-1-17 08:48:52 | 显示全部楼层
楼主发贴辛苦了,谢谢楼主分享!我觉得蓝光电影网是注册对了!
回复 支持 反对

使用道具 举报

发表于 2020-1-17 09:12:39 | 显示全部楼层
感谢分享电影资源
回复 支持 反对

使用道具 举报

发表于 2020-1-17 10:20:10 | 显示全部楼层

这个帖子不回对不起自己!我想我是一天也不能离开蓝光电影网
回复 支持 反对

使用道具 举报

发表于 2020-1-17 14:46:42 | 显示全部楼层
谢谢分享,辛苦你了!
回复 支持 反对

使用道具 举报

发表于 2020-1-17 18:40:51 | 显示全部楼层

这个帖子不回对不起自己!我想我是一天也不能离开蓝光电影网
回复 支持 反对

使用道具 举报

懒得打字嘛,点击右侧快捷回复 【右侧内容,后台自定义】
您需要登录后才可以回帖 登录 | 立即加入

本版积分规则

现在加入蓝光电影网,注册一个账号
上个主题 下个主题 快速回复 收藏帖子 返回列表 客服中心 搜索

手机版|小黑屋| 蓝光电影网 |网站地图 

Copyright © 2015-2019 Comsenz Inc.  Template by 蓝光电影论坛 All Rights Reserved.

Powered by 蓝光电影网 X3.4

特别声明:本站所有资源均由网上收集而来,版权归原影音公司所有,如果侵犯了你的权益,请通知我们,我们会及时删除侵权内容.

快速回复 返回顶部 返回列表