找回密码

蓝光电影网

查看: 277|回复: 10

[奇幻] 奇幻森林/与森林共舞 The.Jungle.Book.2016.1080p.BluRay.x264.DTS-HD.MA.7.1-SWTYBLZ 9.63GB

[复制链接]

 成长值: 24205

发表于 7 天前 | 显示全部楼层 |阅读模式
奇幻森林/与森林共舞 The.Jungle.Book.2016.1080p.BluRay.x264.DTS-HD.MA.7.1-SWTYBLZ 9.63GB-1.png

译  名 奇幻森林 / 与森林共舞(台) / 丛林之书 / 森林王子
片  名 The Jungle Book
年  代 2016
产  地 美国
类  别 剧情 / 奇幻 / 冒险
语  言 英语
上映日期 2016-04-15(美国/中国大陆)
IMDb评分  7.4/10 from 247831 users
IMDb链接  https://www.imdb.com/title/tt3040964
豆瓣评分 7.8/10 from 204857 users
豆瓣链接 https://movie.douban.com/subject/25777636/
片  长 106分钟
导  演 乔恩·费儒 Jon Favreau
编  剧 贾斯丁·马科斯 Justin Marks / 拉迪亚德·吉普林 Rudyard Kipling
主  演 尼尔·塞西 Neel Sethi
       比尔·默瑞 Bill Murray
       本·金斯利 Ben Kingsley
       伊德里斯·艾尔巴 Idris Elba
       露皮塔·尼永奥 Lupita Nyong'o
       斯嘉丽·约翰逊 Scarlett Johansson
       吉安卡罗·埃斯波西托 Giancarlo Esposito
       克里斯托弗·沃肯 Christopher Walken
       恩杰伊·安东尼 Emjay Anthony
       盖瑞·山德林 Garry Shandling
       莎拉·阿林顿 Sara Arrington
       瑞提什·拉詹 Ritesh Rajan


标  签 奇幻 | 迪士尼 | 美国 | 动画 | 冒险 | 动物 | Disney | 2016

简  介  

  茂密的原始森林中,生活着人类小孩毛克利(尼尔·塞西 Neel Sethi 饰)。因某种原因他很小就成为了孤儿,黑豹巴希拉(本·金斯利 Ben Kingsley 配音)最先找到了他,并将毛克利托付给狼族的首领阿克拉。从此以后,毛克利以狼的身份在森林里成长起来,和他的兄弟姐妹们学习捕猎和求生技巧。然而并非所有动物都接受毛克利的存在,特别是曾被人类伤害的老虎谢利·可汗(伊德里斯·艾尔巴 Idris Elba 配音),更将男孩视为眼中钉肉中刺。谢利·可汗向狼族发出威胁,众狼们不得不为族群的命运做出考量。毛克利不希望“家人”为难,他选择离开狼群,而唯一陪伴他的巴希拉则希望带着男孩回归人类世界。
  即便如此,谢利·可汗也绝不肯善罢甘休,他对男孩展开了无休止的追杀……

获奖情况  

  第89届奥斯卡金像奖(2017)
  最佳视觉效果 Andrew R. Jones / 丹·赖蒙 / 罗伯特·莱加托 / 亚当·瓦德兹

  第70届英国电影学院奖(2017)
  电影奖 最佳特殊视觉效果 Andrew R. Jones / 丹·赖蒙 / 罗伯特·莱加托 / 亚当·瓦德兹

  第44届动画安妮奖(2017)
  最佳真人电影动画角色

  第67届美国剪辑工会奖(2017)
  音乐/喜剧片最佳剪辑(提名)

  第15届美国视觉效果协会奖(2017)
  最佳特效电影视觉效果
  最佳真人电影CG动画角色
  最佳电影虚拟摄影
  最佳真人电影模拟动画效果
  最佳电影视觉效果合成

  第22届美国评论家选择电影奖(2017)
  最佳视觉效果

  第21届金卫星奖(2017)
  电影部门 最佳动画片(提名)
  电影部门 最佳改编剧本(提名) 贾斯丁·马科斯
  电影部门 最佳原创配乐(提名) 约翰·戴布尼
  电影部门 最佳摄影 比尔·波普
  电影部门 最佳视觉效果 Andrew R. Jones / 丹·赖蒙 / 罗伯特·莱加托 / 亚当·瓦德兹
  电影部门 最佳音效(提名) Frank E. Eulner / Lora Hirschberg / 克里斯托弗·博伊斯 / 朗·贾金斯
  电影部门 最佳美术指导(提名) 克里斯托弗·格拉斯

  第20届好莱坞电影奖(2016)
  年度音效
  最佳卖座片

  第3届豆瓣电影年度榜单(2016)
  4月最受关注电影
  1. Video
  2. ID                                       : 1
  3. Format                                   : AVC
  4. Format/Info                              : Advanced Video Codec
  5. Format profile                           : High@L4
  6. Format settings                          : CABAC / 4 Ref Frames
  7. Format settings, CABAC                   : Yes
  8. Format settings, Reference frames        : 4 frames
  9. Codec ID                                 : V_MPEG4/ISO/AVC
  10. Duration                                 : 1 h 45 min
  11. Bit rate                                 : 8 818 kb/s
  12. Width                                    : 1 920 pixels
  13. Height                                   : 1 040 pixels
  14. Display aspect ratio                     : 1.85:1
  15. Frame rate mode                          : Constant
  16. Frame rate                               : 23.976 (24000/1001) FPS
  17. Color space                              : YUV
  18. Chroma subsampling                       : 4:2:0
  19. Bit depth                                : 8 bits
  20. Scan type                                : Progressive
  21. Bits/(Pixel*Frame)                       : 0.184
  22. Stream size                              : 6.52 GiB (68%)
  23. Title                                    : The.Jungle.Book.2016.1080p.BluRay.x264.DTS-HD.MA.7.1-SWTYBLZ
  24. Writing library                          : x264 core 148 r2705 3f5ed56
  25. Encoding settings                        : cabac=1 / ref=4 / deblock=1:0:0 / analyse=0x3:0x113 / me=umh / subme=8 / psy=1 / psy_rd=1.00:0.00 / mixed_ref=1 / me_range=16 / chroma_me=1 / trellis=1 / 8x8dct=1 / cqm=0 / deadzone=21,11 / fast_pskip=0 / chroma_qp_offset=-2 / threads=18 / lookahead_threads=3 / sliced_threads=0 / nr=0 / decimate=1 / interlaced=0 / bluray_compat=0 / constrained_intra=0 / bframes=3 / b_pyramid=2 / b_adapt=2 / b_bias=0 / direct=3 / weightb=1 / open_gop=0 / weightp=2 / keyint=250 / keyint_min=23 / scenecut=40 / intra_refresh=0 / rc_lookahead=50 / rc=2pass / mbtree=1 / bitrate=8818 / ratetol=1.0 / qcomp=0.60 / qpmin=0 / qpmax=69 / qpstep=4 / cplxblur=20.0 / qblur=0.5 / ip_ratio=1.40 / aq=1:1.00
  26. Default                                  : Yes
  27. Forced                                   : No

  28. Audio
  29. ID                                       : 2
  30. Format                                   : DTS XLL
  31. Format/Info                              : Digital Theater Systems
  32. Commercial name                          : DTS-HD Master Audio
  33. Codec ID                                 : A_DTS
  34. Duration                                 : 1 h 45 min
  35. Bit rate mode                            : Variable
  36. Bit rate                                 : 4 137 kb/s
  37. Channel(s)                               : 8 channels
  38. Channel layout                           : C L R LFE Lb Rb Lss Rss
  39. Sampling rate                            : 48.0 kHz
  40. Frame rate                               : 93.750 FPS (512 SPF)
  41. Bit depth                                : 24 bits
  42. Compression mode                         : Lossless
  43. Stream size                              : 3.06 GiB (32%)
  44. Title                                    : The.Jungle.Book.2016.1080p.BluRay.x264.DTS-HD.MA.7.1-SWTYBLZ
  45. Language                                 : English
  46. Default                                  : Yes
  47. Forced                                   : No

  48. Text #1
  49. ID                                       : 3
  50. Format                                   : UTF-8
  51. Codec ID                                 : S_TEXT/UTF8
  52. Codec ID/Info                            : UTF-8 Plain Text
  53. Duration                                 : 1 h 44 min
  54. Bit rate                                 : 42 b/s
  55. Count of elements                        : 1215
  56. Stream size                              : 32.3 KiB (0%)
  57. Title                                    : English-SRT
  58. Language                                 : English
  59. Default                                  : Yes
  60. Forced                                   : No

  61. Text #2
  62. ID                                       : 4
  63. Format                                   : UTF-8
  64. Codec ID                                 : S_TEXT/UTF8
  65. Codec ID/Info                            : UTF-8 Plain Text
  66. Duration                                 : 1 h 44 min
  67. Bit rate                                 : 47 b/s
  68. Count of elements                        : 1402
  69. Stream size                              : 36.5 KiB (0%)
  70. Title                                    : English-SDH-SRT
  71. Language                                 : English
  72. Default                                  : No
  73. Forced                                   : No

  74. Text #3
  75. ID                                       : 5
  76. Format                                   : PGS
  77. Muxing mode                              : zlib
  78. Codec ID                                 : S_HDMV/PGS
  79. Codec ID/Info                            : Picture based subtitle format used on BDs/HD-DVDs
  80. Duration                                 : 1 h 44 min
  81. Bit rate                                 : 32.4 kb/s
  82. Count of elements                        : 2822
  83. Stream size                              : 24.2 MiB (0%)
  84. Title                                    : English-PGS
  85. Language                                 : English
  86. Default                                  : No
  87. Forced                                   : No

  88. Text #4
  89. ID                                       : 6
  90. Format                                   : PGS
  91. Muxing mode                              : zlib
  92. Codec ID                                 : S_HDMV/PGS
  93. Codec ID/Info                            : Picture based subtitle format used on BDs/HD-DVDs
  94. Duration                                 : 1 h 45 min
  95. Bit rate                                 : 24.8 kb/s
  96. Count of elements                        : 2256
  97. Stream size                              : 18.7 MiB (0%)
  98. Title                                    : French-PGS
  99. Language                                 : French
  100. Default                                  : No
  101. Forced                                   : No

  102. Text #5
  103. ID                                       : 7
  104. Format                                   : PGS
  105. Muxing mode                              : zlib
  106. Codec ID                                 : S_HDMV/PGS
  107. Codec ID/Info                            : Picture based subtitle format used on BDs/HD-DVDs
  108. Duration                                 : 1 h 44 min
  109. Bit rate                                 : 22.6 kb/s
  110. Count of elements                        : 2156
  111. Stream size                              : 17.0 MiB (0%)
  112. Title                                    : French-PGS
  113. Language                                 : French
  114. Default                                  : No
  115. Forced                                   : No

  116. Text #6
  117. ID                                       : 8
  118. Format                                   : PGS
  119. Muxing mode                              : zlib
  120. Codec ID                                 : S_HDMV/PGS
  121. Codec ID/Info                            : Picture based subtitle format used on BDs/HD-DVDs
  122. Duration                                 : 1 h 44 min
  123. Bit rate                                 : 24.1 kb/s
  124. Count of elements                        : 2204
  125. Stream size                              : 18.1 MiB (0%)
  126. Title                                    : Spanish-PGS
  127. Language                                 : Spanish
  128. Default                                  : No
  129. Forced                                   : No

  130. Text #7
  131. ID                                       : 9
  132. Format                                   : PGS
  133. Muxing mode                              : zlib
  134. Codec ID                                 : S_HDMV/PGS
  135. Codec ID/Info                            : Picture based subtitle format used on BDs/HD-DVDs
  136. Duration                                 : 1 h 44 min
  137. Bit rate                                 : 26.9 kb/s
  138. Count of elements                        : 2200
  139. Stream size                              : 20.1 MiB (0%)
  140. Title                                    : German-PGS
  141. Language                                 : German
  142. Default                                  : No
  143. Forced                                   : No

  144. Text #8
  145. ID                                       : 10
  146. Format                                   : PGS
  147. Muxing mode                              : zlib
  148. Codec ID                                 : S_HDMV/PGS
  149. Codec ID/Info                            : Picture based subtitle format used on BDs/HD-DVDs
  150. Duration                                 : 1 h 44 min
  151. Bit rate                                 : 24.5 kb/s
  152. Count of elements                        : 2220
  153. Stream size                              : 18.4 MiB (0%)
  154. Title                                    : Italian-PGS
  155. Language                                 : Italian
  156. Default                                  : No
  157. Forced                                   : No

  158. Text #9
  159. ID                                       : 11
  160. Format                                   : PGS
  161. Muxing mode                              : zlib
  162. Codec ID                                 : S_HDMV/PGS
  163. Codec ID/Info                            : Picture based subtitle format used on BDs/HD-DVDs
  164. Duration                                 : 1 h 44 min
  165. Bit rate                                 : 23.8 kb/s
  166. Count of elements                        : 2216
  167. Stream size                              : 17.9 MiB (0%)
  168. Title                                    : Norwegian-PGS
  169. Language                                 : Norwegian
  170. Default                                  : No
  171. Forced                                   : No

  172. Text #10
  173. ID                                       : 12
  174. Format                                   : PGS
  175. Muxing mode                              : zlib
  176. Codec ID                                 : S_HDMV/PGS
  177. Codec ID/Info                            : Picture based subtitle format used on BDs/HD-DVDs
  178. Duration                                 : 1 h 44 min
  179. Bit rate                                 : 21.4 kb/s
  180. Count of elements                        : 1424
  181. Stream size                              : 16.0 MiB (0%)
  182. Title                                    : Swedish-PGS
  183. Language                                 : Swedish
  184. Default                                  : No
  185. Forced                                   : No

  186. Menu
  187. 00:00:00.000                             : en:Chapter 01
  188. 00:00:48.590                             : en:Chapter 02
  189. 00:05:15.690                             : en:Chapter 03
  190. 00:09:02.250                             : en:Chapter 04
  191. 00:12:42.553                             : en:Chapter 05
  192. 00:16:34.159                             : en:Chapter 06
  193. 00:21:20.320                             : en:Chapter 07
  194. 00:27:15.133                             : en:Chapter 08
  195. 00:35:03.851                             : en:Chapter 09
  196. 00:43:21.890                             : en:Chapter 10
  197. 00:48:05.591                             : en:Chapter 11
  198. 00:53:29.331                             : en:Chapter 12
  199. 00:58:03.271                             : en:Chapter 13
  200. 01:05:47.318                             : en:Chapter 14
  201. 01:10:35.522                             : en:Chapter 15
  202. 01:17:01.325                             : en:Chapter 16
  203. 01:20:49.803                             : en:Chapter 17
  204. 01:24:46.372                             : en:Chapter 18
  205. 01:30:33.052                             : en:Chapter 19
  206. 01:35:53.164                             : en:Chapter 20
复制代码

66061503672480233743_medium.png 奇幻森林/与森林共舞 The.Jungle.Book.2016.1080p.BluRay.x264.DTS-HD.MA.7.1-SWTYBLZ 9.63GB-3.png 奇幻森林/与森林共舞 The.Jungle.Book.2016.1080p.BluRay.x264.DTS-HD.MA.7.1-SWTYBLZ 9.63GB-4.png






回复

使用道具 举报

发表于 7 天前 | 显示全部楼层
多谢楼主提供分享
回复 支持 反对

使用道具 举报

发表于 6 天前 | 显示全部楼层
Thanks for sharing
回复 支持 反对

使用道具 举报

发表于 6 天前 | 显示全部楼层
评分高!类型喜欢!谢谢分享!
回复 支持 反对

使用道具 举报

发表于 6 天前 | 显示全部楼层

这东西我收了!谢谢楼主!蓝光电影网真好!
回复 支持 反对

使用道具 举报

发表于 5 天前 | 显示全部楼层

这个帖子不回对不起自己!我想我是一天也不能离开蓝光电影网
回复 支持 反对

使用道具 举报

发表于 5 天前 | 显示全部楼层

感谢楼主的无私分享!要想蓝光电影网好 就靠你我他
回复 支持 反对

使用道具 举报

发表于 5 天前 | 显示全部楼层
评分高!类型喜欢!谢谢分享!
回复 支持 反对

使用道具 举报

发表于 4 天前 | 显示全部楼层
楼主发贴辛苦了,谢谢楼主分享!我觉得蓝光电影网是注册对了!
回复 支持 反对

使用道具 举报

发表于 4 天前 | 显示全部楼层

感谢楼主的无私分享!要想蓝光电影网好 就靠你我他
回复 支持 反对

使用道具 举报

懒得打字嘛,点击右侧快捷回复 【右侧内容,后台自定义】
您需要登录后才可以回帖 登录 | 立即加入

本版积分规则

现在加入蓝光电影网,注册一个账号
上个主题 下个主题 快速回复 收藏帖子 返回列表 客服中心 搜索

手机版|小黑屋| 蓝光电影网 |网站地图 

Copyright © 2015-2019 Comsenz Inc.  Template by 蓝光电影论坛 All Rights Reserved.

Powered by 蓝光电影网 X3.4

特别声明:本站所有资源均由网上收集而来,版权归原影音公司所有,如果侵犯了你的权益,请通知我们,我们会及时删除侵权内容.

快速回复 返回顶部 返回列表