找回密码

蓝光电影网

查看: 172|回复: 4

[奇幻] 奇幻森林/与森林共舞 The.Jungle.Book.2016.1080p.BluRay.x264.TrueHD.7.1.Atmos-SWTYBLZ 10.93GB

[复制链接]

 成长值: 24205

发表于 7 天前 | 显示全部楼层 |阅读模式
奇幻森林/与森林共舞 The.Jungle.Book.2016.1080p.BluRay.x264.TrueHD.7.1.Atmos-SWTYBLZ 10.93GB-1.png

译  名 奇幻森林 / 与森林共舞(台) / 丛林之书 / 森林王子
片  名 The Jungle Book
年  代 2016
产  地 美国
类  别 剧情 / 奇幻 / 冒险
语  言 英语
上映日期 2016-04-15(美国/中国大陆)
IMDb评分  7.4/10 from 247831 users
IMDb链接  https://www.imdb.com/title/tt3040964
豆瓣评分 7.8/10 from 204857 users
豆瓣链接 https://movie.douban.com/subject/25777636/
片  长 106分钟
导  演 乔恩·费儒 Jon Favreau
编  剧 贾斯丁·马科斯 Justin Marks / 拉迪亚德·吉普林 Rudyard Kipling
主  演 尼尔·塞西 Neel Sethi
       比尔·默瑞 Bill Murray
       本·金斯利 Ben Kingsley
       伊德里斯·艾尔巴 Idris Elba
       露皮塔·尼永奥 Lupita Nyong'o
       斯嘉丽·约翰逊 Scarlett Johansson
       吉安卡罗·埃斯波西托 Giancarlo Esposito
       克里斯托弗·沃肯 Christopher Walken
       恩杰伊·安东尼 Emjay Anthony
       盖瑞·山德林 Garry Shandling
       莎拉·阿林顿 Sara Arrington
       瑞提什·拉詹 Ritesh Rajan


标  签 奇幻 | 迪士尼 | 美国 | 动画 | 冒险 | 动物 | Disney | 2016

简  介  

  茂密的原始森林中,生活着人类小孩毛克利(尼尔·塞西 Neel Sethi 饰)。因某种原因他很小就成为了孤儿,黑豹巴希拉(本·金斯利 Ben Kingsley 配音)最先找到了他,并将毛克利托付给狼族的首领阿克拉。从此以后,毛克利以狼的身份在森林里成长起来,和他的兄弟姐妹们学习捕猎和求生技巧。然而并非所有动物都接受毛克利的存在,特别是曾被人类伤害的老虎谢利·可汗(伊德里斯·艾尔巴 Idris Elba 配音),更将男孩视为眼中钉肉中刺。谢利·可汗向狼族发出威胁,众狼们不得不为族群的命运做出考量。毛克利不希望“家人”为难,他选择离开狼群,而唯一陪伴他的巴希拉则希望带着男孩回归人类世界。
  即便如此,谢利·可汗也绝不肯善罢甘休,他对男孩展开了无休止的追杀……

获奖情况  

  第89届奥斯卡金像奖(2017)
  最佳视觉效果 Andrew R. Jones / 丹·赖蒙 / 罗伯特·莱加托 / 亚当·瓦德兹

  第70届英国电影学院奖(2017)
  电影奖 最佳特殊视觉效果 Andrew R. Jones / 丹·赖蒙 / 罗伯特·莱加托 / 亚当·瓦德兹

  第44届动画安妮奖(2017)
  最佳真人电影动画角色

  第67届美国剪辑工会奖(2017)
  音乐/喜剧片最佳剪辑(提名)

  第15届美国视觉效果协会奖(2017)
  最佳特效电影视觉效果
  最佳真人电影CG动画角色
  最佳电影虚拟摄影
  最佳真人电影模拟动画效果
  最佳电影视觉效果合成

  第22届美国评论家选择电影奖(2017)
  最佳视觉效果

  第21届金卫星奖(2017)
  电影部门 最佳动画片(提名)
  电影部门 最佳改编剧本(提名) 贾斯丁·马科斯
  电影部门 最佳原创配乐(提名) 约翰·戴布尼
  电影部门 最佳摄影 比尔·波普
  电影部门 最佳视觉效果 Andrew R. Jones / 丹·赖蒙 / 罗伯特·莱加托 / 亚当·瓦德兹
  电影部门 最佳音效(提名) Frank E. Eulner / Lora Hirschberg / 克里斯托弗·博伊斯 / 朗·贾金斯
  电影部门 最佳美术指导(提名) 克里斯托弗·格拉斯

  第20届好莱坞电影奖(2016)
  年度音效
  最佳卖座片

  第3届豆瓣电影年度榜单(2016)
  4月最受关注电影
  1. Video
  2. ID                                       : 1
  3. Format                                   : AVC
  4. Format/Info                              : Advanced Video Codec
  5. Format profile                           : High@L4
  6. Format settings                          : CABAC / 4 Ref Frames
  7. Format settings, CABAC                   : Yes
  8. Format settings, Reference frames        : 4 frames
  9. Codec ID                                 : V_MPEG4/ISO/AVC
  10. Duration                                 : 1 h 45 min
  11. Bit rate                                 : 8 818 kb/s
  12. Width                                    : 1 920 pixels
  13. Height                                   : 1 040 pixels
  14. Display aspect ratio                     : 1.85:1
  15. Frame rate mode                          : Constant
  16. Frame rate                               : 23.976 (24000/1001) FPS
  17. Color space                              : YUV
  18. Chroma subsampling                       : 4:2:0
  19. Bit depth                                : 8 bits
  20. Scan type                                : Progressive
  21. Bits/(Pixel*Frame)                       : 0.184
  22. Stream size                              : 6.52 GiB (60%)
  23. Title                                    : The.Jungle.Book.2016.1080p.BluRay.x264.TrueHD.7.1.Atmos-SWTYBLZ
  24. Writing library                          : x264 core 148 r2705 3f5ed56
  25. Encoding settings                        : cabac=1 / ref=4 / deblock=1:0:0 / analyse=0x3:0x113 / me=umh / subme=8 / psy=1 / psy_rd=1.00:0.00 / mixed_ref=1 / me_range=16 / chroma_me=1 / trellis=1 / 8x8dct=1 / cqm=0 / deadzone=21,11 / fast_pskip=0 / chroma_qp_offset=-2 / threads=18 / lookahead_threads=3 / sliced_threads=0 / nr=0 / decimate=1 / interlaced=0 / bluray_compat=0 / constrained_intra=0 / bframes=3 / b_pyramid=2 / b_adapt=2 / b_bias=0 / direct=3 / weightb=1 / open_gop=0 / weightp=2 / keyint=250 / keyint_min=23 / scenecut=40 / intra_refresh=0 / rc_lookahead=50 / rc=2pass / mbtree=1 / bitrate=8818 / ratetol=1.0 / qcomp=0.60 / qpmin=0 / qpmax=69 / qpstep=4 / cplxblur=20.0 / qblur=0.5 / ip_ratio=1.40 / aq=1:1.00
  26. Default                                  : Yes
  27. Forced                                   : No

  28. Audio #1
  29. ID                                       : 2
  30. Format                                   : MLP FBA 16-ch
  31. Format/Info                              : Meridian Lossless Packing FBA with 16-channel presentation
  32. Commercial name                          : Dolby TrueHD with Dolby Atmos
  33. Codec ID                                 : A_TRUEHD
  34. Duration                                 : 1 h 45 min
  35. Bit rate mode                            : Variable
  36. Bit rate                                 : 5 185 kb/s
  37. Maximum bit rate                         : 7 926 kb/s
  38. Channel(s)                               : 8 channels
  39. Channel layout                           : L R C LFE Ls Rs Lb Rb
  40. Sampling rate                            : 48.0 kHz
  41. Frame rate                               : 1 200.000 FPS (40 SPF)
  42. Compression mode                         : Lossless
  43. Stream size                              : 3.84 GiB (35%)
  44. Title                                    : The.Jungle.Book.2016.1080p.BluRay.x264.TrueHD.7.1.Atmos-SWTYBLZ
  45. Language                                 : English
  46. Default                                  : Yes
  47. Forced                                   : No
  48. Number of dynamic objects                : 13
  49. Bed channel count                        : 1 channel
  50. Bed channel configuration                : LFE

  51. Audio #2
  52. ID                                       : 3
  53. Format                                   : AC-3
  54. Format/Info                              : Audio Coding 3
  55. Commercial name                          : Dolby Digital
  56. Codec ID                                 : A_AC3
  57. Duration                                 : 1 h 45 min
  58. Bit rate mode                            : Constant
  59. Bit rate                                 : 640 kb/s
  60. Channel(s)                               : 6 channels
  61. Channel layout                           : L R C LFE Ls Rs
  62. Sampling rate                            : 48.0 kHz
  63. Frame rate                               : 31.250 FPS (1536 SPF)
  64. Bit depth                                : 16 bits
  65. Compression mode                         : Lossy
  66. Stream size                              : 485 MiB (4%)
  67. Title                                    : The.Jungle.Book.2016.1080p.BluRay.x264.TrueHD.7.1.Atmos-SWTYBLZ
  68. Language                                 : English
  69. Service kind                             : Complete Main
  70. Default                                  : No
  71. Forced                                   : No

  72. Text #1
  73. ID                                       : 4
  74. Format                                   : UTF-8
  75. Codec ID                                 : S_TEXT/UTF8
  76. Codec ID/Info                            : UTF-8 Plain Text
  77. Duration                                 : 1 h 44 min
  78. Bit rate                                 : 42 b/s
  79. Count of elements                        : 1215
  80. Stream size                              : 32.3 KiB (0%)
  81. Title                                    : English-SRT
  82. Language                                 : English
  83. Default                                  : Yes
  84. Forced                                   : No

  85. Text #2
  86. ID                                       : 5
  87. Format                                   : UTF-8
  88. Codec ID                                 : S_TEXT/UTF8
  89. Codec ID/Info                            : UTF-8 Plain Text
  90. Duration                                 : 1 h 44 min
  91. Bit rate                                 : 47 b/s
  92. Count of elements                        : 1402
  93. Stream size                              : 36.5 KiB (0%)
  94. Title                                    : English-SDH-SRT
  95. Language                                 : English
  96. Default                                  : No
  97. Forced                                   : No

  98. Text #3
  99. ID                                       : 6
  100. Format                                   : PGS
  101. Muxing mode                              : zlib
  102. Codec ID                                 : S_HDMV/PGS
  103. Codec ID/Info                            : Picture based subtitle format used on BDs/HD-DVDs
  104. Duration                                 : 1 h 44 min
  105. Bit rate                                 : 32.4 kb/s
  106. Count of elements                        : 2822
  107. Stream size                              : 24.2 MiB (0%)
  108. Title                                    : English-PGS
  109. Language                                 : English
  110. Default                                  : No
  111. Forced                                   : No

  112. Text #4
  113. ID                                       : 7
  114. Format                                   : PGS
  115. Muxing mode                              : zlib
  116. Codec ID                                 : S_HDMV/PGS
  117. Codec ID/Info                            : Picture based subtitle format used on BDs/HD-DVDs
  118. Duration                                 : 1 h 45 min
  119. Bit rate                                 : 24.8 kb/s
  120. Count of elements                        : 2256
  121. Stream size                              : 18.7 MiB (0%)
  122. Title                                    : French-PGS
  123. Language                                 : French
  124. Default                                  : No
  125. Forced                                   : No

  126. Text #5
  127. ID                                       : 8
  128. Format                                   : PGS
  129. Muxing mode                              : zlib
  130. Codec ID                                 : S_HDMV/PGS
  131. Codec ID/Info                            : Picture based subtitle format used on BDs/HD-DVDs
  132. Duration                                 : 1 h 44 min
  133. Bit rate                                 : 22.6 kb/s
  134. Count of elements                        : 2156
  135. Stream size                              : 17.0 MiB (0%)
  136. Title                                    : French-PGS
  137. Language                                 : French
  138. Default                                  : No
  139. Forced                                   : No

  140. Text #6
  141. ID                                       : 9
  142. Format                                   : PGS
  143. Muxing mode                              : zlib
  144. Codec ID                                 : S_HDMV/PGS
  145. Codec ID/Info                            : Picture based subtitle format used on BDs/HD-DVDs
  146. Duration                                 : 1 h 44 min
  147. Bit rate                                 : 24.1 kb/s
  148. Count of elements                        : 2204
  149. Stream size                              : 18.1 MiB (0%)
  150. Title                                    : Spanish-PGS
  151. Language                                 : Spanish
  152. Default                                  : No
  153. Forced                                   : No

  154. Text #7
  155. ID                                       : 10
  156. Format                                   : PGS
  157. Muxing mode                              : zlib
  158. Codec ID                                 : S_HDMV/PGS
  159. Codec ID/Info                            : Picture based subtitle format used on BDs/HD-DVDs
  160. Duration                                 : 1 h 44 min
  161. Bit rate                                 : 26.9 kb/s
  162. Count of elements                        : 2200
  163. Stream size                              : 20.1 MiB (0%)
  164. Title                                    : German-PGS
  165. Language                                 : German
  166. Default                                  : No
  167. Forced                                   : No

  168. Text #8
  169. ID                                       : 11
  170. Format                                   : PGS
  171. Muxing mode                              : zlib
  172. Codec ID                                 : S_HDMV/PGS
  173. Codec ID/Info                            : Picture based subtitle format used on BDs/HD-DVDs
  174. Duration                                 : 1 h 44 min
  175. Bit rate                                 : 24.5 kb/s
  176. Count of elements                        : 2220
  177. Stream size                              : 18.4 MiB (0%)
  178. Title                                    : Italian-PGS
  179. Language                                 : Italian
  180. Default                                  : No
  181. Forced                                   : No

  182. Text #9
  183. ID                                       : 12
  184. Format                                   : PGS
  185. Muxing mode                              : zlib
  186. Codec ID                                 : S_HDMV/PGS
  187. Codec ID/Info                            : Picture based subtitle format used on BDs/HD-DVDs
  188. Duration                                 : 1 h 44 min
  189. Bit rate                                 : 23.8 kb/s
  190. Count of elements                        : 2216
  191. Stream size                              : 17.9 MiB (0%)
  192. Title                                    : Norwegian-PGS
  193. Language                                 : Norwegian
  194. Default                                  : No
  195. Forced                                   : No

  196. Text #10
  197. ID                                       : 13
  198. Format                                   : PGS
  199. Muxing mode                              : zlib
  200. Codec ID                                 : S_HDMV/PGS
  201. Codec ID/Info                            : Picture based subtitle format used on BDs/HD-DVDs
  202. Duration                                 : 1 h 44 min
  203. Bit rate                                 : 21.4 kb/s
  204. Count of elements                        : 1424
  205. Stream size                              : 16.0 MiB (0%)
  206. Title                                    : Swedish-PGS
  207. Language                                 : Swedish
  208. Default                                  : No
  209. Forced                                   : No

  210. Menu
  211. 00:00:00.000                             : en:Chapter 01
  212. 00:00:48.590                             : en:Chapter 02
  213. 00:05:15.690                             : en:Chapter 03
  214. 00:09:02.250                             : en:Chapter 04
  215. 00:12:42.553                             : en:Chapter 05
  216. 00:16:34.159                             : en:Chapter 06
  217. 00:21:20.320                             : en:Chapter 07
  218. 00:27:15.133                             : en:Chapter 08
  219. 00:35:03.851                             : en:Chapter 09
  220. 00:43:21.890                             : en:Chapter 10
  221. 00:48:05.591                             : en:Chapter 11
  222. 00:53:29.331                             : en:Chapter 12
  223. 00:58:03.271                             : en:Chapter 13
  224. 01:05:47.318                             : en:Chapter 14
  225. 01:10:35.522                             : en:Chapter 15
  226. 01:17:01.325                             : en:Chapter 16
  227. 01:20:49.803                             : en:Chapter 17
  228. 01:24:46.372                             : en:Chapter 18
  229. 01:30:33.052                             : en:Chapter 19
  230. 01:35:53.164                             : en:Chapter 20
复制代码

奇幻森林/与森林共舞 The.Jungle.Book.2016.1080p.BluRay.x264.TrueHD.7.1.Atmos-SWTYBLZ 10.93GB-2.png 奇幻森林/与森林共舞 The.Jungle.Book.2016.1080p.BluRay.x264.TrueHD.7.1.Atmos-SWTYBLZ 10.93GB-3.png 奇幻森林/与森林共舞 The.Jungle.Book.2016.1080p.BluRay.x264.TrueHD.7.1.Atmos-SWTYBLZ 10.93GB-4.png






回复

使用道具 举报

 成长值: 1670

发表于 7 天前 | 显示全部楼层
谢谢楼主无私分享。
回复 支持 反对

使用道具 举报

发表于 7 天前 | 显示全部楼层

楼主太厉害了!楼主,电影应该很好看我觉得蓝光电影网真是个好地方!
回复 支持 反对

使用道具 举报

发表于 5 天前 | 显示全部楼层

谢谢楼主无私分享。
回复 支持 反对

使用道具 举报

 成长值: 2640

发表于 4 天前 | 显示全部楼层

这东西我收了!谢谢楼主!蓝光电影网真好!
回复 支持 反对

使用道具 举报

懒得打字嘛,点击右侧快捷回复 【右侧内容,后台自定义】
您需要登录后才可以回帖 登录 | 立即加入

本版积分规则

现在加入蓝光电影网,注册一个账号
上个主题 下个主题 快速回复 收藏帖子 返回列表 客服中心 搜索

手机版|小黑屋| 蓝光电影网 |网站地图 

Copyright © 2015-2019 Comsenz Inc.  Template by 蓝光电影论坛 All Rights Reserved.

Powered by 蓝光电影网 X3.4

特别声明:本站所有资源均由网上收集而来,版权归原影音公司所有,如果侵犯了你的权益,请通知我们,我们会及时删除侵权内容.

快速回复 返回顶部 返回列表