找回密码

蓝光电影网

查看: 196|回复: 6

[剧情] 深夜秀/夜深时 Late.Night.2019.1080p.BluRay.X264-AMIABLE 9.85GB

[复制链接]

 成长值: 24205

发表于 7 天前 | 显示全部楼层 |阅读模式
深夜秀/夜深时 Late.Night.2019.1080p.BluRay.X264-AMIABLE 9.85GB-1.png

译  名 深夜秀 / 夜深时
片  名 Late Night
年  代 2019
产  地 美国
类  别 剧情 / 喜剧
语  言 英语
上映日期 2019-01-25(圣丹斯电影节) / 2019-06-07(美国)
IMDb评分  6.5/10 from 16860 users
IMDb链接  https://www.imdb.com/title/tt6107548
豆瓣评分 6.6/10 from 1986 users
豆瓣链接 https://movie.douban.com/subject/27109401/
片  长 102分钟(圣丹斯电影节)
导  演 尼萨·加纳特 Nisha Ganatra
编  剧 敏迪·卡灵 Mindy Kaling
主  演 艾玛·汤普森 Emma Thompson
       敏迪·卡灵 Mindy Kaling
       约翰·利思戈 John Lithgow
       休·丹西 Hugh Dancy
       伊克·巴里霍尔兹 Ike Barinholtz
       梅歌林·艾奇坤沃克 Megalyn Echikunwoke
       艾米·莱安 Amy Ryan
       马克斯·凯塞拉 Max Casella
       保罗·沃尔特·豪泽 Paul Walter Hauser
       瑞德·斯科特 Reid Scott
       丹尼斯·欧哈拉 Denis O'Hare
       费斯·洛根 Faith Logan
       约翰·厄尔利 John Early
       桃乐丝·麦卡锡 Doris McCarthy
       卢克·斯拉特里 Luke Slattery
       格里高利·迈克尔 Gregory Mikell
       Rupak Ginn


标  签 喜剧 | 美国 | 女性 | 2019 | 脱口秀 | EmmaThompson | 艾玛·汤普森 | 电影

简  介  

  艾玛·汤普森、敏迪·卡灵将参演30WEST、FilmNation打造的喜剧[夜深时](Late Night,暂译)。敏迪·卡灵还操刀剧本,尼萨·加纳特(《高玩救未来》)执导。讲述一个即将失去工作的深夜脱口秀主持人(汤普森饰),当她雇用女性作家(卡灵饰)时,她的工作和生活似乎有了转机。该片将于四月展开拍摄。

获奖情况  

  第77届金球奖(2020)
  电影类 音乐/喜剧片最佳女主角(提名) 艾玛·汤普森
  1. Video
  2. ID                                       : 1
  3. Format                                   : AVC
  4. Format/Info                              : Advanced Video Codec
  5. Format profile                           : High@L4
  6. Format settings                          : CABAC / 4 Ref Frames
  7. Format settings, CABAC                   : Yes
  8. Format settings, Reference frames        : 4 frames
  9. Codec ID                                 : V_MPEG4/ISO/AVC
  10. Duration                                 : 1 h 41 min
  11. Bit rate                                 : 12.3 Mb/s
  12. Width                                    : 1 920 pixels
  13. Height                                   : 1 040 pixels
  14. Display aspect ratio                     : 1.85:1
  15. Frame rate mode                          : Constant
  16. Frame rate                               : 23.976 (24000/1001) FPS
  17. Color space                              : YUV
  18. Chroma subsampling                       : 4:2:0
  19. Bit depth                                : 8 bits
  20. Scan type                                : Progressive
  21. Bits/(Pixel*Frame)                       : 0.258
  22. Stream size                              : 8.57 GiB (87%)
  23. Writing library                          : x264 core 159 r2991 1771b55
  24. Encoding settings                        : cabac=1 / ref=4 / deblock=1:-3:-3 / analyse=0x3:0x133 / me=umh / subme=10 / psy=1 / psy_rd=1.00:0.00 / mixed_ref=1 / me_range=32 / chroma_me=1 / trellis=2 / 8x8dct=1 / cqm=0 / deadzone=21,11 / fast_pskip=0 / chroma_qp_offset=-2 / threads=32 / lookahead_threads=8 / sliced_threads=0 / nr=0 / decimate=0 / interlaced=0 / bluray_compat=0 / constrained_intra=0 / bframes=10 / b_pyramid=2 / b_adapt=2 / b_bias=0 / direct=3 / weightb=1 / open_gop=0 / weightp=2 / keyint=240 / keyint_min=24 / scenecut=40 / intra_refresh=0 / rc_lookahead=60 / rc=2pass / mbtree=1 / bitrate=12342 / ratetol=1.0 / qcomp=0.60 / qpmin=0 / qpmax=69 / qpstep=4 / cplxblur=20.0 / qblur=0.5 / ip_ratio=1.30 / aq=3:0.80
  25. Default                                  : Yes
  26. Forced                                   : No
  27. Statistics Tags Issue                    : no_variable_data 1970-01-01 00:00:00 / no_variable_data 2010-02-22 21:41:29
  28. FromStats_BitRate                        : 12339596
  29. FromStats_Duration                       : 01:41:41.429000000
  30. FromStats_FrameCount                     : 146288
  31. FromStats_StreamSize                     : 9411146312

  32. Audio
  33. ID                                       : 2
  34. Format                                   : DTS
  35. Format/Info                              : Digital Theater Systems
  36. Codec ID                                 : A_DTS
  37. Duration                                 : 1 h 41 min
  38. Bit rate mode                            : Constant
  39. Bit rate                                 : 1 509 kb/s
  40. Channel(s)                               : 6 channels
  41. Channel layout                           : C L R Ls Rs LFE
  42. Sampling rate                            : 48.0 kHz
  43. Frame rate                               : 93.750 FPS (512 SPF)
  44. Bit depth                                : 24 bits
  45. Compression mode                         : Lossy
  46. Stream size                              : 1.07 GiB (11%)
  47. Language                                 : English
  48. Default                                  : Yes
  49. Forced                                   : No
  50. Statistics Tags Issue                    : no_variable_data 1970-01-01 00:00:00 / no_variable_data 2010-02-22 21:41:29
  51. FromStats_BitRate                        : 1508999
  52. FromStats_Duration                       : 01:41:41.430000000
  53. FromStats_FrameCount                     : 572009
  54. FromStats_StreamSize                     : 1150882108

  55. Text #1
  56. ID                                       : 3
  57. Format                                   : UTF-8
  58. Codec ID                                 : S_TEXT/UTF8
  59. Codec ID/Info                            : UTF-8 Plain Text
  60. Language                                 : English
  61. Default                                  : No
  62. Forced                                   : No
  63. Statistics Tags Issue                    : no_variable_data 1970-01-01 00:00:00 / no_variable_data 2010-02-22 21:41:29
  64. FromStats_BitRate                        : 106
  65. FromStats_Duration                       : 01:39:41.475000000
  66. FromStats_FrameCount                     : 2142
  67. FromStats_StreamSize                     : 79785

  68. Text #2
  69. ID                                       : 4
  70. Format                                   : UTF-8
  71. Codec ID                                 : S_TEXT/UTF8
  72. Codec ID/Info                            : UTF-8 Plain Text
  73. Title                                    : SDH
  74. Language                                 : English
  75. Default                                  : No
  76. Forced                                   : No
  77. Statistics Tags Issue                    : no_variable_data 1970-01-01 00:00:00 / no_variable_data 2010-02-22 21:41:29
  78. FromStats_BitRate                        : 113
  79. FromStats_Duration                       : 01:39:44.603000000
  80. FromStats_FrameCount                     : 2286
  81. FromStats_StreamSize                     : 85081

  82. Menu
  83. 00:00:00.000                             : en:Chapter 01
  84. 00:09:51.716                             : en:Chapter 02
  85. 00:16:43.961                             : en:Chapter 03
  86. 00:24:45.693                             : en:Chapter 04
  87. 00:33:04.649                             : en:Chapter 05
  88. 00:40:45.568                             : en:Chapter 06
  89. 00:51:39.513                             : en:Chapter 07
  90. 01:02:18.944                             : en:Chapter 08
  91. 01:10:30.226                             : en:Chapter 09
  92. 01:19:15.960                             : en:Chapter 10
  93. 01:26:09.790                             : en:Chapter 11
  94. 01:36:31.202                             : en:Chapter 12
复制代码

深夜秀/夜深时 Late.Night.2019.1080p.BluRay.X264-AMIABLE 9.85GB-2.png






回复

使用道具 举报

发表于 7 天前 | 显示全部楼层

既然你诚信诚意的推荐了,那我就勉为其难的看看吧!蓝光电影网不走平凡路。
回复 支持 反对

使用道具 举报

发表于 7 天前 | 显示全部楼层
谢谢分享!!!
回复

使用道具 举报

发表于 6 天前 | 显示全部楼层

楼主太厉害了!楼主,电影应该很好看我觉得蓝光电影网真是个好地方!
回复 支持 反对

使用道具 举报

发表于 5 天前 | 显示全部楼层

楼主,大恩不言谢了!蓝光电影网是最棒的!
回复 支持 反对

使用道具 举报

发表于 4 天前 | 显示全部楼层

论坛不能没有像楼主这样的人才啊!我会一直支持蓝光电影网
回复 支持 反对

使用道具 举报

懒得打字嘛,点击右侧快捷回复 【右侧内容,后台自定义】
您需要登录后才可以回帖 登录 | 立即加入

本版积分规则

现在加入蓝光电影网,注册一个账号
上个主题 下个主题 快速回复 收藏帖子 返回列表 客服中心 搜索

手机版|小黑屋| 蓝光电影网 |网站地图 

Copyright © 2015-2019 Comsenz Inc.  Template by 蓝光电影论坛 All Rights Reserved.

Powered by 蓝光电影网 X3.4

特别声明:本站所有资源均由网上收集而来,版权归原影音公司所有,如果侵犯了你的权益,请通知我们,我们会及时删除侵权内容.

快速回复 返回顶部 返回列表