找回密码

蓝光电影网

查看: 268|回复: 5

[剧情] 8号警报/8级警戒 Code.8.2019.1080p.BluRay.x264-PSYCHD 7.95GB

[复制链接]

 成长值: 24205

发表于 7 天前 | 显示全部楼层 |阅读模式
8号警报/8级警戒 Code.8.2019.1080p.BluRay.x264-PSYCHD 7.95GB-1.png

译  名 8号警报 / 8级警戒(台) / 代号8 / 八方急援
片  名 Code 8
年  代 2019
产  地 加拿大
类  别 剧情 / 科幻 / 犯罪
语  言 英语
上映日期 2019-10-03(西班牙锡切斯电影节) / 2019-12-13(加拿大/美国)
IMDb评分  6.1/10 from 9116 users
IMDb链接  https://www.imdb.com/title/tt6259380
豆瓣评分 5.8/10 from 2673 users
豆瓣链接 https://movie.douban.com/subject/27066172/
片  长 98分钟
导  演 杰夫·陈 Jeff Chan
编  剧 克里斯·帕尔 Chris Pare / 杰夫·陈 Jeff Chan
主  演 斯蒂芬·阿梅尔 Stephen Amell
       罗比·阿美尔 Robbie Amell
       姜成镐 Sung Kang
       蕾斯拉·德·奥利维拉 Laysla De Oliveira
       格雷格·布瑞克 Greg Bryk
       卡瑞·玛切特 Kari Matchett
       彼德·奥德博拉治 Peter Outerbridge
       肖恩·本森 Shaun Benson
       阿隆·艾布拉姆斯 Aaron Abrams
       格伦达·布拉甘扎 Glenda Braganza
       西蒙·诺斯伍德 Simon Northwood
       周豪 Ho Chow
       凯拉·凯恩 Kyla Kane
       Alex Mallari Jr.
       JaNae Armogan
       Jeff Sinasac
       Joe Vercillo


标  签 科幻 | 2019 | 美国 | 电影 | 超能力 | 加拿大 | 剧情 | 种族歧视

简  介  

  曾经的“未来之城”林肯城,4%人口具有超能力,其中大多数却在自动化潮流中陷入贫困与歧视的泥沼,日渐成为社会负担甚至隐患,康纳·里德(罗比·艾梅尔 饰)便是这样一名青年临时工——面对母亲的天价医疗费,债台高筑的他不得不铤而走险,直面铁面无情的机械军警卫士。
  影片由杰夫·陈(Jeff Chan)创作执导、克里斯·帕雷(Chris Paré)撰写剧本,改编自两人2016年同名科幻短片,并与主演艾梅尔兄弟等人执行制片。
  1. Video
  2. ID                                       : 1
  3. Format                                   : AVC
  4. Format/Info                              : Advanced Video Codec
  5. Format profile                           : High@L4
  6. Format settings                          : CABAC / 5 Ref Frames
  7. Format settings, CABAC                   : Yes
  8. Format settings, Reference frames        : 5 frames
  9. Codec ID                                 : V_MPEG4/ISO/AVC
  10. Duration                                 : 1 h 38 min
  11. Bit rate                                 : 10.1 Mb/s
  12. Width                                    : 1 920 pixels
  13. Height                                   : 808 pixels
  14. Display aspect ratio                     : 2.40:1
  15. Frame rate mode                          : Constant
  16. Frame rate                               : 23.976 (24000/1001) FPS
  17. Color space                              : YUV
  18. Chroma subsampling                       : 4:2:0
  19. Bit depth                                : 8 bits
  20. Scan type                                : Progressive
  21. Bits/(Pixel*Frame)                       : 0.270
  22. Stream size                              : 6.75 GiB (85%)
  23. Writing library                          : x264 core 159 r2991 1771b55
  24. Encoding settings                        : cabac=1 / ref=5 / deblock=1:-3:-3 / analyse=0x3:0x113 / me=umh / subme=8 / psy=1 / psy_rd=1.00:0.00 / mixed_ref=1 / me_range=32 / chroma_me=1 / trellis=2 / 8x8dct=1 / cqm=0 / deadzone=21,11 / fast_pskip=1 / chroma_qp_offset=-2 / threads=25 / lookahead_threads=4 / sliced_threads=0 / nr=0 / decimate=1 / interlaced=0 / bluray_compat=0 / constrained_intra=0 / bframes=3 / b_pyramid=2 / b_adapt=2 / b_bias=0 / direct=3 / weightb=1 / open_gop=0 / weightp=2 / keyint=240 / keyint_min=24 / scenecut=40 / intra_refresh=0 / rc_lookahead=50 / rc=2pass / mbtree=1 / bitrate=10057 / ratetol=1.0 / qcomp=0.60 / qpmin=0 / qpmax=69 / qpstep=4 / cplxblur=20.0 / qblur=0.5 / ip_ratio=1.40 / aq=3:0.80
  25. Default                                  : Yes
  26. Forced                                   : No
  27. Statistics Tags Issue                    : no_variable_data 1970-01-01 00:00:00 / no_variable_data 2010-02-22 21:41:29
  28. FromStats_BitRate                        : 10057507
  29. FromStats_Duration                       : 01:38:19.185000000
  30. FromStats_FrameCount                     : 141439
  31. FromStats_StreamSize                     : 7416386836

  32. Audio
  33. ID                                       : 2
  34. Format                                   : DTS
  35. Format/Info                              : Digital Theater Systems
  36. Codec ID                                 : A_DTS
  37. Duration                                 : 1 h 38 min
  38. Bit rate mode                            : Constant
  39. Bit rate                                 : 1 509 kb/s
  40. Channel(s)                               : 6 channels
  41. Channel layout                           : C L R Ls Rs LFE
  42. Sampling rate                            : 48.0 kHz
  43. Frame rate                               : 93.750 FPS (512 SPF)
  44. Bit depth                                : 24 bits
  45. Compression mode                         : Lossy
  46. Stream size                              : 1.04 GiB (13%)
  47. Language                                 : English
  48. Default                                  : Yes
  49. Forced                                   : No
  50. Statistics Tags Issue                    : no_variable_data 1970-01-01 00:00:00 / no_variable_data 2010-02-22 21:41:29
  51. FromStats_BitRate                        : 1508999
  52. FromStats_Duration                       : 01:38:19.190000000
  53. FromStats_FrameCount                     : 553049
  54. FromStats_StreamSize                     : 1112734588

  55. Text #1
  56. ID                                       : 3
  57. Format                                   : UTF-8
  58. Codec ID                                 : S_TEXT/UTF8
  59. Codec ID/Info                            : UTF-8 Plain Text
  60. Title                                    : Forced
  61. Language                                 : English
  62. Default                                  : Yes
  63. Forced                                   : Yes
  64. Statistics Tags Issue                    : no_variable_data 1970-01-01 00:00:00 / no_variable_data 2010-02-22 21:41:29
  65. FromStats_BitRate                        : 0
  66. FromStats_Duration                       : 00:13:55.376000000
  67. FromStats_FrameCount                     : 2
  68. FromStats_StreamSize                     : 22

  69. Text #2
  70. ID                                       : 4
  71. Format                                   : UTF-8
  72. Codec ID                                 : S_TEXT/UTF8
  73. Codec ID/Info                            : UTF-8 Plain Text
  74. Language                                 : English
  75. Default                                  : No
  76. Forced                                   : No
  77. Statistics Tags Issue                    : no_variable_data 1970-01-01 00:00:00 / no_variable_data 2010-02-22 21:41:29
  78. FromStats_BitRate                        : 51
  79. FromStats_Duration                       : 01:30:26.004000000
  80. FromStats_FrameCount                     : 1233
  81. FromStats_StreamSize                     : 34608

  82. Text #3
  83. ID                                       : 5
  84. Format                                   : UTF-8
  85. Codec ID                                 : S_TEXT/UTF8
  86. Codec ID/Info                            : UTF-8 Plain Text
  87. Title                                    : SDH
  88. Language                                 : English
  89. Default                                  : No
  90. Forced                                   : No
  91. Statistics Tags Issue                    : no_variable_data 1970-01-01 00:00:00 / no_variable_data 2010-02-22 21:41:29
  92. FromStats_BitRate                        : 60
  93. FromStats_Duration                       : 01:30:33.178000000
  94. FromStats_FrameCount                     : 1459
  95. FromStats_StreamSize                     : 41390

  96. Menu
  97. 00:00:00.000                             : en:Chapter 01
  98. 00:05:02.802                             : en:Chapter 02
  99. 00:11:58.009                             : en:Chapter 03
  100. 00:17:23.709                             : en:Chapter 04
  101. 00:22:29.848                             : en:Chapter 05
  102. 00:30:57.731                             : en:Chapter 06
  103. 00:36:16.674                             : en:Chapter 07
  104. 00:41:57.223                             : en:Chapter 08
  105. 00:47:32.141                             : en:Chapter 09
  106. 00:55:07.971                             : en:Chapter 10
  107. 00:59:33.570                             : en:Chapter 11
  108. 01:05:11.324                             : en:Chapter 12
  109. 01:10:35.731                             : en:Chapter 13
  110. 01:16:44.600                             : en:Chapter 14
  111. 01:23:07.399                             : en:Chapter 15
  112. 01:28:32.641                             : en:Chapter 16
复制代码

8号警报/8级警戒 Code.8.2019.1080p.BluRay.x264-PSYCHD 7.95GB-2.png






回复

使用道具 举报

 成长值: 1670

发表于 7 天前 | 显示全部楼层
谢谢楼主无私分享。
回复 支持 反对

使用道具 举报

已抛锚 成长值: 230

发表于 6 天前 来自手机 | 显示全部楼层
谢谢资源
回复

使用道具 举报

已抛锚 成长值: 230

发表于 6 天前 来自手机 | 显示全部楼层
不知道好看吗
回复 支持 反对

使用道具 举报

 成长值: 2110

发表于 6 天前 | 显示全部楼层

这个帖子不回对不起自己!我想我是一天也不能离开蓝光电影网
回复 支持 反对

使用道具 举报

发表于 6 天前 | 显示全部楼层
这个要支持一下。
回复 支持 反对

使用道具 举报

懒得打字嘛,点击右侧快捷回复 【右侧内容,后台自定义】
您需要登录后才可以回帖 登录 | 立即加入

本版积分规则

现在加入蓝光电影网,注册一个账号
上个主题 下个主题 快速回复 收藏帖子 返回列表 客服中心 搜索

手机版|小黑屋| 蓝光电影网 |网站地图 

Copyright © 2015-2019 Comsenz Inc.  Template by 蓝光电影论坛 All Rights Reserved.

Powered by 蓝光电影网 X3.4

特别声明:本站所有资源均由网上收集而来,版权归原影音公司所有,如果侵犯了你的权益,请通知我们,我们会及时删除侵权内容.

快速回复 返回顶部 返回列表