找回密码

蓝光电影网

查看: 336|回复: 6

[喜剧] 林世荣 The.Magnificent.Butcher.1979.1080p.BluRay.x264-GHOULS 7.66GB

[复制链接]

 成长值: 27235

发表于 2020-1-16 14:49:04 | 显示全部楼层 |阅读模式
林世荣 The.Magnificent.Butcher.1979.1080p.BluRay.x264-GHOULS 7.66GB-1.png

译  名 The Magnificent Butcher / 仁者无敌
片  名 林世荣
年  代 1979
产  地 中国香港
类  别 喜剧 / 动作
语  言 粤语
上映日期 1979-12-19(中国香港)
IMDb评分  7.3/10 from 2021 users
IMDb链接  https://www.imdb.com/title/tt0079472
豆瓣评分 6.7/10 from 1792 users
豆瓣链接 https://movie.douban.com/subject/1306258/
片  长 108分钟
导  演 袁和平 Woo-ping Yuen
编  剧 王晶 Jing Wong / 邓景生 Edward Tang
主  演 洪金宝 Sammo Hung Kam-Bo
       元彪 Biao Yuen
       樊梅生 Mei Sheng Fan
       韦白 Pai Wei
       陈琪琪 Qiqi Chen
       关德兴 Tak-Hing Kwan
       钟发 Fat Chung
       林正英 Ching-Ying Lam


标  签 香港 | 动作 | 1979 | 功夫 | 喜剧 | 武打 | 电影 | 武侠

简  介  

  黄飞鸿(关德兴 饰)之徒林世荣(洪金宝 饰)卖猪肉为生,街坊称其为“猪肉荣”,林世荣平日好打抱不平,但是性格莽撞自作聪明,时常令自己陷入窘境。这天林世荣误打当地武林势力“五龙堂”门生,五龙堂主高霸天(李海生 饰)率众闯入宝芝林讨要说法,黄飞鸿巧妙化解,但林世荣免不了受责 罚。林世荣之弟林世光从乡下赶来投奔世荣,不想高霸天之子高大海觊觎世光妻子,设计将其掳走,世光被毒打,林世荣久未见亲弟,反误认世光为暴徒,为高大海出头将世光打伤。万念俱灰的世光欲寻死,巧遇落魄武林高手(樊梅生 饰)相救。高大海再施计寻求世荣保护,然而世荣世光兄弟终于相认,世光之妻亦被世荣救出,但世荣救人时再次自作聪明,将高霸天干女儿一起带走,令自己陷入了更大麻烦……
  1. Video
  2. ID                                       : 1
  3. Format                                   : AVC
  4. Format/Info                              : Advanced Video Codec
  5. Format profile                           : High@L4
  6. Format settings                          : CABAC / 5 Ref Frames
  7. Format settings, CABAC                   : Yes
  8. Format settings, Reference frames        : 5 frames
  9. Codec ID                                 : V_MPEG4/ISO/AVC
  10. Duration                                 : 1 h 49 min
  11. Bit rate                                 : 8 538 kb/s
  12. Width                                    : 1 920 pixels
  13. Height                                   : 808 pixels
  14. Display aspect ratio                     : 2.40:1
  15. Frame rate mode                          : Constant
  16. Frame rate                               : 23.976 (24000/1001) FPS
  17. Color space                              : YUV
  18. Chroma subsampling                       : 4:2:0
  19. Bit depth                                : 8 bits
  20. Scan type                                : Progressive
  21. Bits/(Pixel*Frame)                       : 0.230
  22. Stream size                              : 6.50 GiB (85%)
  23. Writing library                          : x264 core 158 r2988 7817004
  24. Encoding settings                        : cabac=1 / ref=5 / deblock=1:-3:-3 / analyse=0x3:0x133 / me=umh / subme=9 / psy=1 / psy_rd=1.00:0.00 / mixed_ref=1 / me_range=24 / chroma_me=1 / trellis=1 / 8x8dct=1 / cqm=0 / deadzone=21,11 / fast_pskip=0 / chroma_qp_offset=-2 / threads=24 / lookahead_threads=4 / sliced_threads=0 / nr=0 / decimate=1 / interlaced=0 / bluray_compat=0 / constrained_intra=0 / bframes=8 / b_pyramid=2 / b_adapt=2 / b_bias=0 / direct=3 / weightb=1 / open_gop=0 / weightp=2 / keyint=250 / keyint_min=23 / scenecut=40 / intra_refresh=0 / rc_lookahead=60 / rc=2pass / mbtree=1 / bitrate=8538 / ratetol=1.0 / qcomp=0.60 / qpmin=0 / qpmax=69 / qpstep=4 / cplxblur=20.0 / qblur=0.5 / vbv_maxrate=62500 / vbv_bufsize=78125 / nal_hrd=none / filler=0 / ip_ratio=1.40 / aq=1:1.00
  25. Default                                  : Yes
  26. Forced                                   : No

  27. Audio #1
  28. ID                                       : 2
  29. Format                                   : FLAC
  30. Format/Info                              : Free Lossless Audio Codec
  31. Codec ID                                 : A_FLAC
  32. Duration                                 : 1 h 49 min
  33. Bit rate mode                            : Variable
  34. Bit rate                                 : 306 kb/s
  35. Channel(s)                               : 1 channel
  36. Channel layout                           : C
  37. Sampling rate                            : 48.0 kHz
  38. Frame rate                               : 10.417 FPS (4608 SPF)
  39. Bit depth                                : 16 bits
  40. Compression mode                         : Lossless
  41. Stream size                              : 239 MiB (3%)
  42. Writing library                          : Lavf58.29.100
  43. Language                                 : Chinese
  44. Default                                  : Yes
  45. Forced                                   : No

  46. Audio #2
  47. ID                                       : 3
  48. Format                                   : FLAC
  49. Format/Info                              : Free Lossless Audio Codec
  50. Codec ID                                 : A_FLAC
  51. Duration                                 : 1 h 49 min
  52. Bit rate mode                            : Variable
  53. Bit rate                                 : 1 201 kb/s
  54. Channel(s)                               : 2 channels
  55. Channel layout                           : L R
  56. Sampling rate                            : 48.0 kHz
  57. Frame rate                               : 10.417 FPS (4608 SPF)
  58. Bit depth                                : 24 bits
  59. Compression mode                         : Lossless
  60. Stream size                              : 937 MiB (12%)
  61. Writing library                          : Lavf58.29.100
  62. Language                                 : English
  63. Default                                  : No
  64. Forced                                   : No

  65. Text
  66. ID                                       : 4
  67. Format                                   : UTF-8
  68. Codec ID                                 : S_TEXT/UTF8
  69. Codec ID/Info                            : UTF-8 Plain Text
  70. Duration                                 : 1 h 46 min
  71. Bit rate                                 : 49 b/s
  72. Count of elements                        : 1293
  73. Stream size                              : 38.8 KiB (0%)
  74. Language                                 : English
  75. Default                                  : Yes
  76. Forced                                   : No

  77. Menu
  78. 00:00:00.000                             : en:Chapter 01
  79. 00:08:52.782                             : en:Chapter 02
  80. 00:17:57.326                             : en:Chapter 03
  81. 00:27:10.087                             : en:Chapter 04
  82. 00:39:54.100                             : en:Chapter 05
  83. 00:47:37.021                             : en:Chapter 06
  84. 00:56:57.539                             : en:Chapter 07
  85. 01:05:59.539                             : en:Chapter 08
  86. 01:14:26.837                             : en:Chapter 09
  87. 01:19:41.360                             : en:Chapter 10
  88. 01:30:42.312                             : en:Chapter 11
  89. 01:37:18.833                             : en:Chapter 12
复制代码

144528jj4wp3wwwz53rhh9.png






回复

使用道具 举报

发表于 2020-1-16 15:44:19 | 显示全部楼层
看看怎么么呀
回复 支持 反对

使用道具 举报

发表于 2020-1-17 23:08:03 | 显示全部楼层
好,多谢分享。
回复 支持 反对

使用道具 举报

发表于 2020-1-18 00:06:41 | 显示全部楼层
好,多谢分享
回复 支持 反对

使用道具 举报

发表于 2020-1-18 00:08:11 | 显示全部楼层
好,多谢分享好,多谢分享好,多谢分享
回复 支持 反对

使用道具 举报

发表于 2020-2-19 20:35:48 | 显示全部楼层
经典老片值得下载收藏!
回复 支持 反对

使用道具 举报

发表于 2020-7-27 10:12:10 | 显示全部楼层
谢谢分享,辛苦了
回复 支持 反对

使用道具 举报

懒得打字嘛,点击右侧快捷回复 【右侧内容,后台自定义】
您需要登录后才可以回帖 登录 | 立即加入

本版积分规则

现在加入蓝光电影网,注册一个账号
上个主题 下个主题 快速回复 收藏帖子 返回列表 客服中心 搜索

手机版|小黑屋| 蓝光电影网 |网站地图 

Copyright © 2015-2019 Comsenz Inc.  Template by 蓝光电影论坛 All Rights Reserved.

Powered by 蓝光电影网 X3.4

特别声明:本站所有资源均由网上收集而来,版权归原影音公司所有,如果侵犯了你的权益,请通知我们,我们会及时删除侵权内容.

快速回复 返回顶部 返回列表