找回密码

蓝光电影网

查看: 27506|回复: 541

[动作] 终结者:黑暗命运 Terminator.Dark.Fate.2019.1080p.BluRay.x264-SPARKS 8.76GB

  [复制链接]

 成长值: 26800

发表于 2020-1-16 14:36:50 | 显示全部楼层 |阅读模式
终结者:黑暗命运 Terminator.Dark.Fate.2019.1080p.BluRay.x264-SPARKS 8.76GB-1.png

译  名 终结者:黑暗命运 / Terminator 6 / 未来战士:黑暗命运(港) / 终结者2019 / 终结者6 / 终结者6:黑暗命运 / 终结者6:黑暗宿命 / 魔鬼终结者:黑暗宿命(台)
片  名 Terminator: Dark Fate
年  代 2019
产  地 美国 / 中国大陆
类  别 动作 / 科幻 / 冒险
语  言 英语
上映日期 2019-10-23(法国) / 2019-11-01(美国/中国大陆)
IMDb评分  6.5/10 from 53542 users
IMDb链接  https://www.imdb.com/title/tt6450804
豆瓣评分 7.1/10 from 81555 users
豆瓣链接 https://movie.douban.com/subject/27109633/
片  长 128分钟
导  演 蒂姆·米勒 Tim Miller
编  剧 詹姆斯·卡梅隆 James Cameron / 查尔斯·H·伊格里 Charles H. Eglee / 乔什·弗莱德曼 Josh Friedman / 大卫·S·高耶 David S. Goyer / 贾斯汀·罗德斯 Justin Rhodes / 比利·雷 Billy Ray / 盖尔·安妮·赫德 Gale Anne Hurd
主  演 麦肯兹·戴维斯 Mackenzie Davis
       娜塔利娅·雷耶斯 Natalia Reyes
       琳达·汉密尔顿 Linda Hamilton
       阿诺·施瓦辛格 Arnold Schwarzenegger
       加布里埃尔·鲁纳 Gabriel Luna
       迪耶戈·博内塔 Diego Boneta
       恩里克·阿尔切 Enrique Arce
       特里斯坦·乌罗阿 Tristán Ulloa
       艾丽西娅·博拉切罗 Alicia Borrachero
       布雷特·阿扎尔 Brett Azar
       史蒂芬·克里 Steven Cree
       罗谢尔·尼尔 Rochelle Neil
       弗雷泽·杰姆斯 Fraser James
       克劳迪娅·特鲁希略 Claudia Trujillo
       比约恩·弗赖贝格 Bj?rn Freiberg
       约翰·盖蒂尔 John Gettier
       彼得·奥蒙德 Peter Ormond
       Lorna Brown
       Peter Schueller


标  签 科幻 | 动作 | 美国 | 机器人 | 2019 | 情怀 | 冒险 | 剧情

简  介  

  《终结者2:审判日》发生的27年后,由于未来天网派来T-800成功杀死年幼的约翰,以致令未来产生变化,一个全新进化的液态金属终结者从未来派出,目的是追杀持有关键讯息的丹妮·拉莫斯、半生化人葛蕾丝和她的朋友。这使莎拉·康纳以及成功杀死约翰的T800终结者前来帮助她们一行人,以共同为了人类的未来而战。

获奖情况  

  第6届豆瓣电影年度榜单(2019)
  评分最高的科幻/动作片(提名)
  1. Video
  2. ID                                       : 1
  3. Format                                   : AVC
  4. Format/Info                              : Advanced Video Codec
  5. Format profile                           : High@L4
  6. Format settings                          : CABAC / 5 Ref Frames
  7. Format settings, CABAC                   : Yes
  8. Format settings, Reference frames        : 5 frames
  9. Codec ID                                 : V_MPEG4/ISO/AVC
  10. Duration                                 : 2 h 8 min
  11. Bit rate                                 : 9 134 kb/s
  12. Width                                    : 1 920 pixels
  13. Height                                   : 808 pixels
  14. Display aspect ratio                     : 2.40:1
  15. Frame rate mode                          : Constant
  16. Frame rate                               : 23.976 (24000/1001) FPS
  17. Color space                              : YUV
  18. Chroma subsampling                       : 4:2:0
  19. Bit depth                                : 8 bits
  20. Scan type                                : Progressive
  21. Bits/(Pixel*Frame)                       : 0.246
  22. Stream size                              : 8.17 GiB (93%)
  23. Writing library                          : x264 core 159 r2991 1771b55
  24. Encoding settings                        : cabac=1 / ref=5 / deblock=1:-3:-3 / analyse=0x3:0x113 / me=umh / subme=8 / psy=1 / psy_rd=1.00:0.00 / mixed_ref=1 / me_range=16 / chroma_me=1 / trellis=1 / 8x8dct=1 / cqm=0 / deadzone=21,11 / fast_pskip=1 / chroma_qp_offset=-2 / threads=25 / lookahead_threads=4 / sliced_threads=0 / nr=0 / decimate=1 / interlaced=0 / bluray_compat=0 / constrained_intra=0 / bframes=3 / b_pyramid=2 / b_adapt=1 / b_bias=0 / direct=3 / weightb=1 / open_gop=0 / weightp=2 / keyint=250 / keyint_min=23 / scenecut=40 / intra_refresh=0 / rc_lookahead=50 / rc=2pass / mbtree=1 / bitrate=9134 / ratetol=1.0 / qcomp=0.60 / qpmin=0 / qpmax=69 / qpstep=4 / cplxblur=20.0 / qblur=0.5 / ip_ratio=1.40 / aq=1:1.00
  25. Language                                 : English
  26. Default                                  : Yes
  27. Forced                                   : No

  28. Audio
  29. ID                                       : 2
  30. Format                                   : AC-3
  31. Format/Info                              : Audio Coding 3
  32. Commercial name                          : Dolby Digital
  33. Codec ID                                 : A_AC3
  34. Duration                                 : 2 h 8 min
  35. Bit rate mode                            : Constant
  36. Bit rate                                 : 640 kb/s
  37. Channel(s)                               : 6 channels
  38. Channel layout                           : L R C LFE Ls Rs
  39. Sampling rate                            : 48.0 kHz
  40. Frame rate                               : 31.250 FPS (1536 SPF)
  41. Bit depth                                : 16 bits
  42. Compression mode                         : Lossy
  43. Stream size                              : 586 MiB (7%)
  44. Language                                 : English
  45. Service kind                             : Complete Main
  46. Default                                  : Yes
  47. Forced                                   : No

  48. Menu
  49. 00:00:00.000                             : en:00:00:00.000
  50. 00:04:19.843                             : en:00:04:19.843
  51. 00:07:48.927                             : en:00:07:48.927
  52. 00:11:47.916                             : en:00:11:47.916
  53. 00:16:56.349                             : en:00:16:56.349
  54. 00:22:10.663                             : en:00:22:10.663
  55. 00:29:00.614                             : en:00:29:00.614
  56. 00:33:25.754                             : en:00:33:25.754
  57. 00:41:35.493                             : en:00:41:35.493
  58. 00:47:02.695                             : en:00:47:02.695
  59. 00:53:08.936                             : en:00:53:08.936
  60. 00:57:56.807                             : en:00:57:56.807
  61. 01:05:02.690                             : en:01:05:02.690
  62. 01:13:07.967                             : en:01:13:07.967
  63. 01:20:45.591                             : en:01:20:45.591
  64. 01:27:29.744                             : en:01:27:29.744
  65. 01:32:48.688                             : en:01:32:48.688
  66. 01:41:45.850                             : en:01:41:45.850
  67. 01:49:35.319                             : en:01:49:35.319
  68. 01:57:58.613                             : en:01:57:58.613
复制代码

终结者:黑暗命运 Terminator.Dark.Fate.2019.1080p.BluRay.x264-SPARKS 8.76GB-2.png






回复

使用道具 举报

发表于 2020-1-16 23:35:35 | 显示全部楼层
还能下载吗
回复 支持 1 反对 0

使用道具 举报

发表于 2020-1-16 15:18:11 | 显示全部楼层

这东西我收了!谢谢楼主!蓝光电影网真好!
回复 支持 反对

使用道具 举报

发表于 2020-1-16 16:14:39 | 显示全部楼层
楼主发贴辛苦了,谢谢楼主分享!我觉得蓝光电影网是注册对了!
回复 支持 反对

使用道具 举报

头像被屏蔽

 成长值: 3100

发表于 2020-1-16 16:27:02 | 显示全部楼层
提示: 该帖被管理员或版主屏蔽
回复 支持 反对

使用道具 举报

发表于 2020-1-16 17:27:15 | 显示全部楼层

其实我一直觉得楼主的品味不错!呵呵!蓝光电影网太棒了!
回复 支持 反对

使用道具 举报

 成长值: 3550

发表于 2020-1-16 18:16:17 | 显示全部楼层
谢谢楼主无私分享。
回复 支持 反对

使用道具 举报

发表于 2020-1-16 18:51:48 | 显示全部楼层
:):):):):):):):):):):)谢谢楼主无私分享。
回复 支持 反对

使用道具 举报

发表于 2020-1-16 20:37:20 | 显示全部楼层
谢谢楼主发布好电影。
回复 支持 反对

使用道具 举报

发表于 2020-1-16 22:14:28 | 显示全部楼层

楼主,大恩不言谢了!蓝光电影网是最棒的!
回复 支持 反对

使用道具 举报

发表于 2020-1-16 22:26:33 | 显示全部楼层
楼主发贴辛苦了,谢谢楼主分享!我觉得蓝光电影网是注册对了!
回复 支持 反对

使用道具 举报

懒得打字嘛,点击右侧快捷回复 【右侧内容,后台自定义】
您需要登录后才可以回帖 登录 | 立即加入

本版积分规则

上个主题 下个主题 快速回复 收藏帖子 返回列表 客服中心 搜索
现在加入蓝光电影网,注册一个账号

手机版|小黑屋| 蓝光电影网  |网站地图

Copyright © 2015-2019 Comsenz Inc.  Template by 蓝光电影论坛 All Rights Reserved.

Powered by 蓝光电影网 X3.4

特别声明:本站所有资源均由网上收集而来,版权归原影音公司所有,如果侵犯了你的权益,请通知我们,我们会及时删除侵权内容.

快速回复 返回顶部 返回列表