找回密码

蓝光电影网

查看: 372|回复: 11
打印 上一主题 下一主题

[REMUX.HEVC] 奇幻森林/与森林共舞 The.Jungle.Book.2016.2160p.BluRay.REMUX.HEVC.DTS-HD.MA.TrueHD.7.1.Atmos-FGT 60.13GB

[复制链接]

 成长值: 24205

跳转到指定楼层
1#


译  名 奇幻森林 / 与森林共舞(台) / 丛林之书 / 森林王子
片  名 The Jungle Book
年  代 2016
产  地 美国
类  别 剧情 / 奇幻 / 冒险
语  言 英语
上映日期 2016-04-15(美国/中国大陆)
IMDb评分  7.4/10 from 247831 users
IMDb链接  https://www.imdb.com/title/tt3040964
豆瓣评分 7.8/10 from 204857 users
豆瓣链接 https://movie.douban.com/subject/25777636/
片  长 106分钟
导  演 乔恩·费儒 Jon Favreau
编  剧 贾斯丁·马科斯 Justin Marks / 拉迪亚德·吉普林 Rudyard Kipling
主  演 尼尔·塞西 Neel Sethi
       比尔·默瑞 Bill Murray
       本·金斯利 Ben Kingsley
       伊德里斯·艾尔巴 Idris Elba
       露皮塔·尼永奥 Lupita Nyong'o
       斯嘉丽·约翰逊 Scarlett Johansson
       吉安卡罗·埃斯波西托 Giancarlo Esposito
       克里斯托弗·沃肯 Christopher Walken
       恩杰伊·安东尼 Emjay Anthony
       盖瑞·山德林 Garry Shandling
       莎拉·阿林顿 Sara Arrington
       瑞提什·拉詹 Ritesh Rajan


标  签 奇幻 | 迪士尼 | 美国 | 动画 | 冒险 | 动物 | Disney | 2016

简  介  

  茂密的原始森林中,生活着人类小孩毛克利(尼尔·塞西 Neel Sethi 饰)。因某种原因他很小就成为了孤儿,黑豹巴希拉(本·金斯利 Ben Kingsley 配音)最先找到了他,并将毛克利托付给狼族的首领阿克拉。从此以后,毛克利以狼的身份在森林里成长起来,和他的兄弟姐妹们学习捕猎和求生技巧。然而并非所有动物都接受毛克利的存在,特别是曾被人类伤害的老虎谢利·可汗(伊德里斯·艾尔巴 Idris Elba 配音),更将男孩视为眼中钉肉中刺。谢利·可汗向狼族发出威胁,众狼们不得不为族群的命运做出考量。毛克利不希望“家人”为难,他选择离开狼群,而唯一陪伴他的巴希拉则希望带着男孩回归人类世界。
  即便如此,谢利·可汗也绝不肯善罢甘休,他对男孩展开了无休止的追杀……

获奖情况  

  第89届奥斯卡金像奖(2017)
  最佳视觉效果 Andrew R. Jones / 丹·赖蒙 / 罗伯特·莱加托 / 亚当·瓦德兹

  第70届英国电影学院奖(2017)
  电影奖 最佳特殊视觉效果 Andrew R. Jones / 丹·赖蒙 / 罗伯特·莱加托 / 亚当·瓦德兹

  第44届动画安妮奖(2017)
  最佳真人电影动画角色

  第67届美国剪辑工会奖(2017)
  音乐/喜剧片最佳剪辑(提名)

  第15届美国视觉效果协会奖(2017)
  最佳特效电影视觉效果
  最佳真人电影CG动画角色
  最佳电影虚拟摄影
  最佳真人电影模拟动画效果
  最佳电影视觉效果合成

  第22届美国评论家选择电影奖(2017)
  最佳视觉效果

  第21届金卫星奖(2017)
  电影部门 最佳动画片(提名)
  电影部门 最佳改编剧本(提名) 贾斯丁·马科斯
  电影部门 最佳原创配乐(提名) 约翰·戴布尼
  电影部门 最佳摄影 比尔·波普
  电影部门 最佳视觉效果 Andrew R. Jones / 丹·赖蒙 / 罗伯特·莱加托 / 亚当·瓦德兹
  电影部门 最佳音效(提名) Frank E. Eulner / Lora Hirschberg / 克里斯托弗·博伊斯 / 朗·贾金斯
  电影部门 最佳美术指导(提名) 克里斯托弗·格拉斯

  第20届好莱坞电影奖(2016)
  年度音效
  最佳卖座片

  第3届豆瓣电影年度榜单(2016)
  4月最受关注电影
  1. Video
  2. ID                                       : 1
  3. Format                                   : HEVC
  4. Format/Info                              : High Efficiency Video Coding
  5. Format profile                           : Main High@L4@High
  6. HDR format                               : SMPTE ST 2086, HDR10 compatible
  7. Codec ID                                 : V_MPEGH/ISO/HEVC
  8. Duration                                 : 1 h 45 min
  9. Bit rate                                 : 63.8 Mb/s
  10. Width                                    : 3 840 pixels
  11. Height                                   : 2 160 pixels
  12. Display aspect ratio                     : 16:9
  13. Frame rate mode                          : Constant
  14. Frame rate                               : 23.976 (24000/1001) FPS
  15. Color space                              : YUV
  16. Chroma subsampling                       : 4:2:0 (Type 2)
  17. Bit depth                                : 10 bits
  18. Bits/(Pixel*Frame)                       : 0.321
  19. Stream size                              : 47.2 GiB (79%)
  20. Title                                    : The.Jungle.Book.2016.2160p.BluRay.REMUX.HEVC.DTS-HD.MA.TrueHD.7.1.Atmos-FGT
  21. Language                                 : English
  22. Default                                  : No
  23. Forced                                   : No
  24. Color range                              : Limited
  25. Color primaries                          : BT.2020
  26. Transfer characteristics                 : PQ
  27. Matrix coefficients                      : BT.2020 non-constant
  28. Mastering display color primaries        : Display P3
  29. Mastering display luminance              : min: 0.0010 cd/m2, max: 4000 cd/m2
  30. Maximum Content Light Level              : 998 cd/m2
  31. Maximum Frame-Average Light Level        : 236 cd/m2

  32. Audio #1
  33. ID                                       : 2
  34. Format                                   : MLP FBA 16-ch
  35. Format/Info                              : Meridian Lossless Packing FBA with 16-channel presentation
  36. Commercial name                          : Dolby TrueHD with Dolby Atmos
  37. Codec ID                                 : A_TRUEHD
  38. Duration                                 : 1 h 45 min
  39. Bit rate mode                            : Variable
  40. Bit rate                                 : 5 185 kb/s
  41. Maximum bit rate                         : 7 926 kb/s
  42. Channel(s)                               : 8 channels
  43. Channel layout                           : L R C LFE Ls Rs Lb Rb
  44. Sampling rate                            : 48.0 kHz
  45. Frame rate                               : 1 200.000 FPS (40 SPF)
  46. Compression mode                         : Lossless
  47. Stream size                              : 3.84 GiB (6%)
  48. Title                                    : The.Jungle.Book.2016.2160p.BluRay.REMUX.HEVC.DTS-HD.MA.TrueHD.7.1.Atmos-FGT
  49. Language                                 : English
  50. Default                                  : Yes
  51. Forced                                   : No
  52. Number of dynamic objects                : 13
  53. Bed channel count                        : 1 channel
  54. Bed channel configuration                : LFE

  55. Audio #2
  56. ID                                       : 3
  57. Format                                   : DTS XLL
  58. Format/Info                              : Digital Theater Systems
  59. Commercial name                          : DTS-HD Master Audio
  60. Codec ID                                 : A_DTS
  61. Duration                                 : 1 h 45 min
  62. Bit rate mode                            : Variable
  63. Bit rate                                 : 4 137 kb/s
  64. Channel(s)                               : 8 channels
  65. Channel layout                           : C L R LFE Lb Rb Lss Rss
  66. Sampling rate                            : 48.0 kHz
  67. Frame rate                               : 93.750 FPS (512 SPF)
  68. Bit depth                                : 24 bits
  69. Compression mode                         : Lossless
  70. Stream size                              : 3.06 GiB (5%)
  71. Title                                    : The.Jungle.Book.2016.2160p.BluRay.REMUX.HEVC.DTS-HD.MA.TrueHD.7.1.Atmos-FGT
  72. Language                                 : English
  73. Default                                  : No
  74. Forced                                   : No

  75. Audio #3
  76. ID                                       : 4
  77. Format                                   : AC-3
  78. Format/Info                              : Audio Coding 3
  79. Commercial name                          : Dolby Digital
  80. Codec ID                                 : A_AC3
  81. Duration                                 : 1 h 45 min
  82. Bit rate mode                            : Constant
  83. Bit rate                                 : 640 kb/s
  84. Channel(s)                               : 6 channels
  85. Channel layout                           : L R C LFE Ls Rs
  86. Sampling rate                            : 48.0 kHz
  87. Frame rate                               : 31.250 FPS (1536 SPF)
  88. Bit depth                                : 16 bits
  89. Compression mode                         : Lossy
  90. Stream size                              : 485 MiB (1%)
  91. Title                                    : The.Jungle.Book.2016.2160p.BluRay.REMUX.HEVC.DTS-HD.MA.TrueHD.7.1.Atmos-FGT
  92. Language                                 : English
  93. Service kind                             : Complete Main
  94. Default                                  : No
  95. Forced                                   : No

  96. Audio #4
  97. ID                                       : 5
  98. Format                                   : AC-3
  99. Format/Info                              : Audio Coding 3
  100. Commercial name                          : Dolby Digital
  101. Codec ID                                 : A_AC3
  102. Duration                                 : 1 h 45 min
  103. Bit rate mode                            : Constant
  104. Bit rate                                 : 320 kb/s
  105. Channel(s)                               : 2 channels
  106. Channel layout                           : L R
  107. Sampling rate                            : 48.0 kHz
  108. Frame rate                               : 31.250 FPS (1536 SPF)
  109. Bit depth                                : 16 bits
  110. Compression mode                         : Lossy
  111. Stream size                              : 242 MiB (0%)
  112. Title                                    : The.Jungle.Book.2016.2160p.BluRay.REMUX.HEVC.DTS-HD.MA.TrueHD.7.1.Atmos-FGT
  113. Language                                 : English
  114. Service kind                             : Complete Main
  115. Default                                  : No
  116. Forced                                   : No

  117. Audio #5
  118. ID                                       : 6
  119. Format                                   : AC-3
  120. Format/Info                              : Audio Coding 3
  121. Commercial name                          : Dolby Digital
  122. Codec ID                                 : A_AC3
  123. Duration                                 : 1 h 45 min
  124. Bit rate mode                            : Constant
  125. Bit rate                                 : 640 kb/s
  126. Channel(s)                               : 6 channels
  127. Channel layout                           : L R C LFE Ls Rs
  128. Sampling rate                            : 48.0 kHz
  129. Frame rate                               : 31.250 FPS (1536 SPF)
  130. Bit depth                                : 16 bits
  131. Compression mode                         : Lossy
  132. Stream size                              : 485 MiB (1%)
  133. Title                                    : The.Jungle.Book.2016.2160p.BluRay.REMUX.HEVC.DTS-HD.MA.TrueHD.7.1.Atmos-FGT
  134. Language                                 : French
  135. Service kind                             : Complete Main
  136. Default                                  : No
  137. Forced                                   : No

  138. Audio #6
  139. ID                                       : 7
  140. Format                                   : E-AC-3
  141. Format/Info                              : Enhanced AC-3
  142. Commercial name                          : Dolby Digital Plus
  143. Format profile                           : Blu-ray Disc
  144. Codec ID                                 : A_EAC3
  145. Duration                                 : 1 h 45 min
  146. Bit rate mode                            : Constant
  147. Bit rate                                 : 1 024 kb/s
  148. Channel(s)                               : 8 channels
  149. Channel layout                           : L R C LFE Ls Rs Lb Rb
  150. Sampling rate                            : 48.0 kHz
  151. Frame rate                               : 31.250 FPS (1536 SPF)
  152. Compression mode                         : Lossy
  153. Stream size                              : 776 MiB (1%)
  154. Title                                    : The.Jungle.Book.2016.2160p.BluRay.REMUX.HEVC.DTS-HD.MA.TrueHD.7.1.Atmos-FGT
  155. Language                                 : French
  156. Service kind                             : Complete Main
  157. Default                                  : No
  158. Forced                                   : No

  159. Audio #7
  160. ID                                       : 8
  161. Format                                   : AC-3
  162. Format/Info                              : Audio Coding 3
  163. Commercial name                          : Dolby Digital
  164. Codec ID                                 : A_AC3
  165. Duration                                 : 1 h 45 min
  166. Bit rate mode                            : Constant
  167. Bit rate                                 : 576 kb/s
  168. Channel(s)                               : 6 channels
  169. Channel layout                           : L R C LFE Ls Rs
  170. Sampling rate                            : 48.0 kHz
  171. Frame rate                               : 31.250 FPS (1536 SPF)
  172. Bit depth                                : 16 bits
  173. Compression mode                         : Lossy
  174. Stream size                              : 436 MiB (1%)
  175. Title                                    : The.Jungle.Book.2016.2160p.BluRay.REMUX.HEVC.DTS-HD.MA.TrueHD.7.1.Atmos-FGT
  176. Language                                 : French
  177. Service kind                             : Complete Main
  178. Default                                  : No
  179. Forced                                   : No

  180. Audio #8
  181. ID                                       : 9
  182. Format                                   : E-AC-3
  183. Format/Info                              : Enhanced AC-3
  184. Commercial name                          : Dolby Digital Plus
  185. Format profile                           : Blu-ray Disc
  186. Codec ID                                 : A_EAC3
  187. Duration                                 : 1 h 45 min
  188. Bit rate mode                            : Constant
  189. Bit rate                                 : 1 024 kb/s
  190. Channel(s)                               : 8 channels
  191. Channel layout                           : L R C LFE Ls Rs Lb Rb
  192. Sampling rate                            : 48.0 kHz
  193. Frame rate                               : 31.250 FPS (1536 SPF)
  194. Compression mode                         : Lossy
  195. Stream size                              : 776 MiB (1%)
  196. Title                                    : The.Jungle.Book.2016.2160p.BluRay.REMUX.HEVC.DTS-HD.MA.TrueHD.7.1.Atmos-FGT
  197. Language                                 : Spanish
  198. Service kind                             : Complete Main
  199. Default                                  : No
  200. Forced                                   : No

  201. Audio #9
  202. ID                                       : 10
  203. Format                                   : AC-3
  204. Format/Info                              : Audio Coding 3
  205. Commercial name                          : Dolby Digital
  206. Codec ID                                 : A_AC3
  207. Duration                                 : 1 h 45 min
  208. Bit rate mode                            : Constant
  209. Bit rate                                 : 576 kb/s
  210. Channel(s)                               : 6 channels
  211. Channel layout                           : L R C LFE Ls Rs
  212. Sampling rate                            : 48.0 kHz
  213. Frame rate                               : 31.250 FPS (1536 SPF)
  214. Bit depth                                : 16 bits
  215. Compression mode                         : Lossy
  216. Stream size                              : 436 MiB (1%)
  217. Title                                    : The.Jungle.Book.2016.2160p.BluRay.REMUX.HEVC.DTS-HD.MA.TrueHD.7.1.Atmos-FGT
  218. Language                                 : Spanish
  219. Service kind                             : Complete Main
  220. Default                                  : No
  221. Forced                                   : No

  222. Audio #10
  223. ID                                       : 11
  224. Format                                   : E-AC-3
  225. Format/Info                              : Enhanced AC-3
  226. Commercial name                          : Dolby Digital Plus
  227. Format profile                           : Blu-ray Disc
  228. Codec ID                                 : A_EAC3
  229. Duration                                 : 1 h 45 min
  230. Bit rate mode                            : Constant
  231. Bit rate                                 : 1 024 kb/s
  232. Channel(s)                               : 8 channels
  233. Channel layout                           : L R C LFE Ls Rs Lb Rb
  234. Sampling rate                            : 48.0 kHz
  235. Frame rate                               : 31.250 FPS (1536 SPF)
  236. Compression mode                         : Lossy
  237. Stream size                              : 776 MiB (1%)
  238. Title                                    : The.Jungle.Book.2016.2160p.BluRay.REMUX.HEVC.DTS-HD.MA.TrueHD.7.1.Atmos-FGT
  239. Language                                 : German
  240. Service kind                             : Complete Main
  241. Default                                  : No
  242. Forced                                   : No

  243. Audio #11
  244. ID                                       : 12
  245. Format                                   : AC-3
  246. Format/Info                              : Audio Coding 3
  247. Commercial name                          : Dolby Digital
  248. Codec ID                                 : A_AC3
  249. Duration                                 : 1 h 45 min
  250. Bit rate mode                            : Constant
  251. Bit rate                                 : 576 kb/s
  252. Channel(s)                               : 6 channels
  253. Channel layout                           : L R C LFE Ls Rs
  254. Sampling rate                            : 48.0 kHz
  255. Frame rate                               : 31.250 FPS (1536 SPF)
  256. Bit depth                                : 16 bits
  257. Compression mode                         : Lossy
  258. Stream size                              : 436 MiB (1%)
  259. Title                                    : The.Jungle.Book.2016.2160p.BluRay.REMUX.HEVC.DTS-HD.MA.TrueHD.7.1.Atmos-FGT
  260. Language                                 : German
  261. Service kind                             : Complete Main
  262. Default                                  : No
  263. Forced                                   : No

  264. Audio #12
  265. ID                                       : 13
  266. Format                                   : E-AC-3
  267. Format/Info                              : Enhanced AC-3
  268. Commercial name                          : Dolby Digital Plus
  269. Format profile                           : Blu-ray Disc
  270. Codec ID                                 : A_EAC3
  271. Duration                                 : 1 h 45 min
  272. Bit rate mode                            : Constant
  273. Bit rate                                 : 1 024 kb/s
  274. Channel(s)                               : 8 channels
  275. Channel layout                           : L R C LFE Ls Rs Lb Rb
  276. Sampling rate                            : 48.0 kHz
  277. Frame rate                               : 31.250 FPS (1536 SPF)
  278. Compression mode                         : Lossy
  279. Stream size                              : 776 MiB (1%)
  280. Title                                    : The.Jungle.Book.2016.2160p.BluRay.REMUX.HEVC.DTS-HD.MA.TrueHD.7.1.Atmos-FGT
  281. Language                                 : Italian
  282. Service kind                             : Complete Main
  283. Default                                  : No
  284. Forced                                   : No

  285. Audio #13
  286. ID                                       : 14
  287. Format                                   : AC-3
  288. Format/Info                              : Audio Coding 3
  289. Commercial name                          : Dolby Digital
  290. Codec ID                                 : A_AC3
  291. Duration                                 : 1 h 45 min
  292. Bit rate mode                            : Constant
  293. Bit rate                                 : 576 kb/s
  294. Channel(s)                               : 6 channels
  295. Channel layout                           : L R C LFE Ls Rs
  296. Sampling rate                            : 48.0 kHz
  297. Frame rate                               : 31.250 FPS (1536 SPF)
  298. Bit depth                                : 16 bits
  299. Compression mode                         : Lossy
  300. Stream size                              : 436 MiB (1%)
  301. Title                                    : The.Jungle.Book.2016.2160p.BluRay.REMUX.HEVC.DTS-HD.MA.TrueHD.7.1.Atmos-FGT
  302. Language                                 : Italian
  303. Service kind                             : Complete Main
  304. Default                                  : No
  305. Forced                                   : No

  306. Text #1
  307. ID                                       : 15
  308. Format                                   : UTF-8
  309. Codec ID                                 : S_TEXT/UTF8
  310. Codec ID/Info                            : UTF-8 Plain Text
  311. Duration                                 : 1 h 44 min
  312. Bit rate                                 : 42 b/s
  313. Count of elements                        : 1215
  314. Stream size                              : 32.3 KiB (0%)
  315. Title                                    : English-SRT
  316. Language                                 : English
  317. Default                                  : Yes
  318. Forced                                   : No

  319. Text #2
  320. ID                                       : 16
  321. Format                                   : UTF-8
  322. Codec ID                                 : S_TEXT/UTF8
  323. Codec ID/Info                            : UTF-8 Plain Text
  324. Duration                                 : 1 h 44 min
  325. Bit rate                                 : 47 b/s
  326. Count of elements                        : 1402
  327. Stream size                              : 36.5 KiB (0%)
  328. Title                                    : English-SDH-SRT
  329. Language                                 : English
  330. Default                                  : No
  331. Forced                                   : No

  332. Text #3
  333. ID                                       : 17
  334. Format                                   : PGS
  335. Muxing mode                              : zlib
  336. Codec ID                                 : S_HDMV/PGS
  337. Codec ID/Info                            : Picture based subtitle format used on BDs/HD-DVDs
  338. Duration                                 : 1 h 44 min
  339. Bit rate                                 : 32.4 kb/s
  340. Count of elements                        : 2822
  341. Stream size                              : 24.2 MiB (0%)
  342. Title                                    : English-PGS
  343. Language                                 : English
  344. Default                                  : No
  345. Forced                                   : No

  346. Text #4
  347. ID                                       : 18
  348. Format                                   : PGS
  349. Muxing mode                              : zlib
  350. Codec ID                                 : S_HDMV/PGS
  351. Codec ID/Info                            : Picture based subtitle format used on BDs/HD-DVDs
  352. Duration                                 : 1 h 45 min
  353. Bit rate                                 : 24.8 kb/s
  354. Count of elements                        : 2256
  355. Stream size                              : 18.7 MiB (0%)
  356. Title                                    : French-PGS
  357. Language                                 : French
  358. Default                                  : No
  359. Forced                                   : No

  360. Text #5
  361. ID                                       : 19
  362. Format                                   : PGS
  363. Muxing mode                              : zlib
  364. Codec ID                                 : S_HDMV/PGS
  365. Codec ID/Info                            : Picture based subtitle format used on BDs/HD-DVDs
  366. Duration                                 : 1 h 44 min
  367. Bit rate                                 : 22.6 kb/s
  368. Count of elements                        : 2156
  369. Stream size                              : 17.0 MiB (0%)
  370. Title                                    : French-PGS
  371. Language                                 : French
  372. Default                                  : No
  373. Forced                                   : No

  374. Text #6
  375. ID                                       : 20
  376. Format                                   : PGS
  377. Muxing mode                              : zlib
  378. Codec ID                                 : S_HDMV/PGS
  379. Codec ID/Info                            : Picture based subtitle format used on BDs/HD-DVDs
  380. Duration                                 : 1 h 44 min
  381. Bit rate                                 : 24.1 kb/s
  382. Count of elements                        : 2204
  383. Stream size                              : 18.1 MiB (0%)
  384. Title                                    : Spanish-PGS
  385. Language                                 : Spanish
  386. Default                                  : No
  387. Forced                                   : No

  388. Text #7
  389. ID                                       : 21
  390. Format                                   : PGS
  391. Muxing mode                              : zlib
  392. Codec ID                                 : S_HDMV/PGS
  393. Codec ID/Info                            : Picture based subtitle format used on BDs/HD-DVDs
  394. Duration                                 : 1 h 44 min
  395. Bit rate                                 : 26.9 kb/s
  396. Count of elements                        : 2200
  397. Stream size                              : 20.1 MiB (0%)
  398. Title                                    : German-PGS
  399. Language                                 : German
  400. Default                                  : No
  401. Forced                                   : No

  402. Text #8
  403. ID                                       : 22
  404. Format                                   : PGS
  405. Muxing mode                              : zlib
  406. Codec ID                                 : S_HDMV/PGS
  407. Codec ID/Info                            : Picture based subtitle format used on BDs/HD-DVDs
  408. Duration                                 : 1 h 44 min
  409. Bit rate                                 : 24.5 kb/s
  410. Count of elements                        : 2220
  411. Stream size                              : 18.4 MiB (0%)
  412. Title                                    : Italian-PGS
  413. Language                                 : Italian
  414. Default                                  : No
  415. Forced                                   : No

  416. Text #9
  417. ID                                       : 23
  418. Format                                   : PGS
  419. Muxing mode                              : zlib
  420. Codec ID                                 : S_HDMV/PGS
  421. Codec ID/Info                            : Picture based subtitle format used on BDs/HD-DVDs
  422. Duration                                 : 1 h 44 min
  423. Bit rate                                 : 23.8 kb/s
  424. Count of elements                        : 2216
  425. Stream size                              : 17.9 MiB (0%)
  426. Title                                    : Norwegian-PGS
  427. Language                                 : Norwegian
  428. Default                                  : No
  429. Forced                                   : No

  430. Text #10
  431. ID                                       : 24
  432. Format                                   : PGS
  433. Muxing mode                              : zlib
  434. Codec ID                                 : S_HDMV/PGS
  435. Codec ID/Info                            : Picture based subtitle format used on BDs/HD-DVDs
  436. Duration                                 : 1 h 44 min
  437. Bit rate                                 : 21.4 kb/s
  438. Count of elements                        : 1424
  439. Stream size                              : 16.0 MiB (0%)
  440. Title                                    : Swedish-PGS
  441. Language                                 : Swedish
  442. Default                                  : No
  443. Forced                                   : No

  444. Text #11
  445. ID                                       : 25
  446. Format                                   : PGS
  447. Muxing mode                              : zlib
  448. Codec ID                                 : S_HDMV/PGS
  449. Codec ID/Info                            : Picture based subtitle format used on BDs/HD-DVDs
  450. Duration                                 : 1 h 45 min
  451. Bit rate                                 : 412 b/s
  452. Count of elements                        : 48
  453. Stream size                              : 317 KiB (0%)
  454. Title                                    : French-FORCED-PGS
  455. Language                                 : French
  456. Default                                  : No
  457. Forced                                   : No

  458. Text #12
  459. ID                                       : 26
  460. Format                                   : PGS
  461. Muxing mode                              : zlib
  462. Codec ID                                 : S_HDMV/PGS
  463. Codec ID/Info                            : Picture based subtitle format used on BDs/HD-DVDs
  464. Duration                                 : 1 h 44 min
  465. Bit rate                                 : 92 b/s
  466. Count of elements                        : 8
  467. Stream size                              : 71.1 KiB (0%)
  468. Title                                    : French-FORCED-PGS
  469. Language                                 : French
  470. Default                                  : No
  471. Forced                                   : No

  472. Text #13
  473. ID                                       : 27
  474. Format                                   : PGS
  475. Muxing mode                              : zlib
  476. Codec ID                                 : S_HDMV/PGS
  477. Codec ID/Info                            : Picture based subtitle format used on BDs/HD-DVDs
  478. Duration                                 : 1 h 44 min
  479. Bit rate                                 : 107 b/s
  480. Count of elements                        : 8
  481. Stream size                              : 83.0 KiB (0%)
  482. Title                                    : Spanish-FORCED-PGS
  483. Language                                 : Spanish
  484. Default                                  : No
  485. Forced                                   : No

  486. Text #14
  487. ID                                       : 28
  488. Format                                   : PGS
  489. Muxing mode                              : zlib
  490. Codec ID                                 : S_HDMV/PGS
  491. Codec ID/Info                            : Picture based subtitle format used on BDs/HD-DVDs
  492. Duration                                 : 4 s 859 ms
  493. Bit rate                                 : 92.2 kb/s
  494. Count of elements                        : 4
  495. Stream size                              : 54.7 KiB (0%)
  496. Title                                    : German-FORCED-PGS
  497. Language                                 : German
  498. Default                                  : No
  499. Forced                                   : No

  500. Text #15
  501. ID                                       : 29
  502. Format                                   : PGS
  503. Muxing mode                              : zlib
  504. Codec ID                                 : S_HDMV/PGS
  505. Codec ID/Info                            : Picture based subtitle format used on BDs/HD-DVDs
  506. Duration                                 : 1 h 44 min
  507. Bit rate                                 : 108 b/s
  508. Count of elements                        : 8
  509. Stream size                              : 83.6 KiB (0%)
  510. Title                                    : Italian-FORCED-PGS
  511. Language                                 : Italian
  512. Default                                  : No
  513. Forced                                   : No

  514. Menu
  515. 00:00:00.000                             : en:Chapter 01
  516. 00:00:48.590                             : en:Chapter 02
  517. 00:05:15.690                             : en:Chapter 03
  518. 00:09:02.250                             : en:Chapter 04
  519. 00:12:42.553                             : en:Chapter 05
  520. 00:16:34.159                             : en:Chapter 06
  521. 00:21:20.320                             : en:Chapter 07
  522. 00:27:15.133                             : en:Chapter 08
  523. 00:35:03.851                             : en:Chapter 09
  524. 00:43:21.890                             : en:Chapter 10
  525. 00:48:05.591                             : en:Chapter 11
  526. 00:53:29.331                             : en:Chapter 12
  527. 00:58:03.271                             : en:Chapter 13
  528. 01:05:47.318                             : en:Chapter 14
  529. 01:10:35.522                             : en:Chapter 15
  530. 01:17:01.325                             : en:Chapter 16
  531. 01:20:49.803                             : en:Chapter 17
  532. 01:24:46.372                             : en:Chapter 18
  533. 01:30:33.052                             : en:Chapter 19
  534. 01:35:53.164                             : en:Chapter 20
复制代码








分享到:  QQ好友和群QQ好友和群
收藏收藏
回复

使用道具 举报

2#
发表于 7 天前 | 只看该作者
非常感谢楼主精彩分享。
回复 支持 反对

使用道具 举报

 成长值: 1630

3#
发表于 7 天前 | 只看该作者
廣東龍門馬到成功!謝謝樓主的無私發佈分享!
回复 支持 反对

使用道具 举报

4#
发表于 7 天前 | 只看该作者
又一个版本的《人猿泰山》
回复 支持 反对

使用道具 举报

 成长值: 1670

5#
发表于 7 天前 | 只看该作者
谢谢楼主无私分享。
回复 支持 反对

使用道具 举报

6#
发表于 7 天前 | 只看该作者
非常感谢楼主精彩分享。
回复 支持 反对

使用道具 举报

7#
发表于 6 天前 | 只看该作者
谢谢楼主发片。
回复 支持 反对

使用道具 举报

 成长值: 205

8#
发表于 6 天前 | 只看该作者
好资源,感谢楼主分享
回复 支持 反对

使用道具 举报

9#
发表于 6 天前 | 只看该作者
感谢分享!!!
回复

使用道具 举报

10#
发表于 5 天前 | 只看该作者

这东西我收了!谢谢楼主!蓝光电影网真好!
回复 支持 反对

使用道具 举报

懒得打字嘛,点击右侧快捷回复 【右侧内容,后台自定义】
您需要登录后才可以回帖 登录 | 立即加入

本版积分规则

现在加入蓝光电影网,注册一个账号
上个主题 下个主题 快速回复 收藏帖子 返回列表 客服中心 搜索

手机版|小黑屋| 蓝光电影网 |网站地图 

Copyright © 2015-2019 Comsenz Inc.  Template by 蓝光电影论坛 All Rights Reserved.

Powered by 蓝光电影网 X3.4

特别声明:本站所有资源均由网上收集而来,版权归原影音公司所有,如果侵犯了你的权益,请通知我们,我们会及时删除侵权内容.

快速回复 返回顶部 返回列表