找回密码

蓝光电影网

查看: 107|回复: 2

[惊悚片] 惊杀 Fright.1971.720p.BluRay.x264-SPOOKS 3.28GB

[复制链接]

 成长值: 24205

发表于 2020-1-14 21:01:13 | 显示全部楼层 |阅读模式
惊杀 Fright.1971.720p.BluRay.x264-SPOOKS 3.28GB-1.png

译  名 惊杀 / Night Legs
片  名 Fright
年  代 1971
产  地 英国
类  别 惊悚 / 恐怖 / 犯罪
语  言 英语
上映日期 1972-05-30
IMDb评分  5.9/10 from 1075 users
IMDb链接  https://www.imdb.com/title/tt0067119
豆瓣评分 0/10 from 0 users
豆瓣链接 https://movie.douban.com/subject/3182964/
片  长 87 分钟
导  演 Peter Collinson
编  剧 Tudor Gates
主  演 Honor Blackman
       Susan George
       Ian Bannen
       John Gregson
       George Cole
       Dennis Waterman


标  签 惊悚 | 恐怖 | 英国 | 英国电影 | 犯罪 | 悬疑 | 垃圾 | 剧情

简  介  

  暂无相关剧情介绍
  1. Video
  2. ID                                       : 1
  3. Format                                   : AVC
  4. Format/Info                              : Advanced Video Codec
  5. Format profile                           : High@L4
  6. Format settings                          : CABAC / 9 Ref Frames
  7. Format settings, CABAC                   : Yes
  8. Format settings, Reference frames        : 9 frames
  9. Codec ID                                 : V_MPEG4/ISO/AVC
  10. Duration                                 : 1 h 27 min
  11. Bit rate                                 : 4 761 kb/s
  12. Width                                    : 1 200 pixels
  13. Height                                   : 720 pixels
  14. Display aspect ratio                     : 5:3
  15. Frame rate mode                          : Constant
  16. Frame rate                               : 24.000 FPS
  17. Color space                              : YUV
  18. Chroma subsampling                       : 4:2:0
  19. Bit depth                                : 8 bits
  20. Scan type                                : Progressive
  21. Bits/(Pixel*Frame)                       : 0.230
  22. Stream size                              : 2.91 GiB (89%)
  23. Writing library                          : x264 core 158 r2988 7817004
  24. Encoding settings                        : cabac=1 / ref=9 / deblock=1:-3:-3 / analyse=0x3:0x133 / me=umh / subme=9 / psy=1 / psy_rd=1.00:0.00 / mixed_ref=1 / me_range=24 / chroma_me=1 / trellis=1 / 8x8dct=1 / cqm=0 / deadzone=21,11 / fast_pskip=0 / chroma_qp_offset=-2 / threads=22 / lookahead_threads=3 / sliced_threads=0 / nr=0 / decimate=1 / interlaced=0 / bluray_compat=0 / constrained_intra=0 / bframes=8 / b_pyramid=2 / b_adapt=2 / b_bias=0 / direct=3 / weightb=1 / open_gop=0 / weightp=2 / keyint=250 / keyint_min=24 / scenecut=40 / intra_refresh=0 / rc_lookahead=60 / rc=2pass / mbtree=1 / bitrate=4761 / ratetol=1.0 / qcomp=0.60 / qpmin=0 / qpmax=69 / qpstep=4 / cplxblur=20.0 / qblur=0.5 / vbv_maxrate=62500 / vbv_bufsize=78125 / nal_hrd=none / filler=0 / ip_ratio=1.40 / aq=1:1.00
  25. Default                                  : Yes
  26. Forced                                   : No

  27. Audio
  28. ID                                       : 2
  29. Format                                   : FLAC
  30. Format/Info                              : Free Lossless Audio Codec
  31. Codec ID                                 : A_FLAC
  32. Duration                                 : 1 h 27 min
  33. Bit rate mode                            : Variable
  34. Bit rate                                 : 595 kb/s
  35. Channel(s)                               : 2 channels
  36. Channel layout                           : L R
  37. Sampling rate                            : 48.0 kHz
  38. Frame rate                               : 10.417 FPS (4608 SPF)
  39. Bit depth                                : 24 bits
  40. Compression mode                         : Lossless
  41. Stream size                              : 373 MiB (11%)
  42. Writing library                          : Lavf58.29.100
  43. Language                                 : English
  44. Default                                  : Yes
  45. Forced                                   : No

  46. Menu
  47. 00:00:00.000                             : en:Chapter 01
  48. 00:06:12.250                             : en:Chapter 02
  49. 00:16:10.750                             : en:Chapter 03
  50. 00:20:58.417                             : en:Chapter 04
  51. 00:28:43.125                             : en:Chapter 05
  52. 00:43:09.042                             : en:Chapter 06
  53. 00:52:49.333                             : en:Chapter 07
  54. 01:01:43.750                             : en:Chapter 08
  55. 01:08:38.917                             : en:Chapter 09
  56. 01:18:34.208                             : en:Chapter 10
  57. 01:21:56.917                             : en:Chapter 11
  58. 01:26:27.000                             : en:Chapter 12
复制代码

惊杀 Fright.1971.720p.BluRay.x264-SPOOKS 3.28GB-2.png






回复

使用道具 举报

发表于 2020-1-15 10:48:14 | 显示全部楼层
:):):):):)
回复

使用道具 举报

发表于 2020-1-15 20:15:44 | 显示全部楼层
楼主发贴辛苦了,谢谢楼主分享!我觉得蓝光电影网是注册对了!
回复 支持 反对

使用道具 举报

懒得打字嘛,点击右侧快捷回复 【右侧内容,后台自定义】
您需要登录后才可以回帖 登录 | 立即加入

本版积分规则

现在加入蓝光电影网,注册一个账号
上个主题 下个主题 快速回复 收藏帖子 返回列表 客服中心 搜索

手机版|小黑屋| 蓝光电影网 |网站地图 

Copyright © 2015-2019 Comsenz Inc.  Template by 蓝光电影论坛 All Rights Reserved.

Powered by 蓝光电影网 X3.4

特别声明:本站所有资源均由网上收集而来,版权归原影音公司所有,如果侵犯了你的权益,请通知我们,我们会及时删除侵权内容.

快速回复 返回顶部 返回列表