找回密码

蓝光电影网

查看: 97|回复: 1

[剧情片] 逆风蝶舞 Float.Like.A.Butterfly.2018.1080p.WEB-DL.DD5.1.H264-FGT 3.50GB

[复制链接]

 成长值: 24265

发表于 2020-1-14 17:38:35 | 显示全部楼层 |阅读模式
逆风蝶舞 Float.Like.A.Butterfly.2018.1080p.WEB-DL.DD5.1.H264-FGT 3.50GB-1.png

译  名 逆风蝶舞
片  名 Float Like a Butterfly
年  代 2018
产  地 爱尔兰
类  别 剧情
语  言 英语
上映日期 2018-09-07(多伦多电影节)
IMDb评分  6.4/10 from 90 users
IMDb链接  https://www.imdb.com/title/tt7636672
豆瓣评分 0/10 from 0 users
豆瓣链接 https://movie.douban.com/subject/30307250/
片  长 101分钟
导  演 卡梅尔·温特斯 Carmel Winters
编  剧 卡梅尔·温特斯 Carmel Winters
主  演 Hazel Doupe
       Dara Devaney
       Johnny Collins
       Hilda Fay
       John Gerard Healy
       Jamie Kierans
       Amelie Metcalfe
       艾登·奥黑尔 Aidan O'Hare
       莱勒·罗迪 Lalor Roddy


标  签 爱尔兰 | 爱尔兰电影 | 女性 | BIFF | SIFF | 家庭 | 体育 | 运动

简  介  

  风光如画的爱尔兰,画风突然一转:15岁的小姑娘弗朗西斯喜欢拳击,偶像是阿里,这个爱好不被父亲等许多人理解。弗朗西斯不惜流汗和流血,获得梦想和自由。

获奖情况  

  第43届多伦多国际电影节(2018)
  国际影评人联盟奖 国际影评人发现奖

  第23届釜山国际电影节(2018)
  未来景象奖(提名) 卡梅尔·温特斯
  1. Video
  2. ID                                       : 1
  3. Format                                   : AVC
  4. Format/Info                              : Advanced Video Codec
  5. Format profile                           : High@L4
  6. Format settings                          : CABAC / 5 Ref Frames
  7. Format settings, CABAC                   : Yes
  8. Format settings, Reference frames        : 5 frames
  9. Codec ID                                 : V_MPEG4/ISO/AVC
  10. Duration                                 : 1 h 41 min
  11. Bit rate                                 : 4 564 kb/s
  12. Width                                    : 1 908 pixels
  13. Height                                   : 796 pixels
  14. Display aspect ratio                     : 2.40:1
  15. Frame rate mode                          : Constant
  16. Frame rate                               : 23.976 (24000/1001) FPS
  17. Color space                              : YUV
  18. Chroma subsampling                       : 4:2:0
  19. Bit depth                                : 8 bits
  20. Scan type                                : Progressive
  21. Bits/(Pixel*Frame)                       : 0.125
  22. Stream size                              : 3.23 GiB (92%)
  23. Title                                    : Float.Like.A.Butterfly.2018.1080p.WEB-DL.DD5.1.H264-FGT
  24. Language                                 : English
  25. Default                                  : Yes
  26. Forced                                   : No
  27. Color range                              : Limited
  28. Color primaries                          : BT.709
  29. Transfer characteristics                 : BT.709
  30. Matrix coefficients                      : BT.709

  31. Audio
  32. ID                                       : 2
  33. Format                                   : AC-3
  34. Format/Info                              : Audio Coding 3
  35. Commercial name                          : Dolby Digital
  36. Codec ID                                 : A_AC3
  37. Duration                                 : 1 h 41 min
  38. Bit rate mode                            : Constant
  39. Bit rate                                 : 384 kb/s
  40. Channel(s)                               : 6 channels
  41. Channel layout                           : L R C LFE Ls Rs
  42. Sampling rate                            : 48.0 kHz
  43. Frame rate                               : 31.250 FPS (1536 SPF)
  44. Bit depth                                : 16 bits
  45. Compression mode                         : Lossy
  46. Stream size                              : 278 MiB (8%)
  47. Title                                    : Float.Like.A.Butterfly.2018.1080p.WEB-DL.DD5.1.H264-FGT
  48. Language                                 : English
  49. Service kind                             : Complete Main
  50. Default                                  : Yes
  51. Forced                                   : No

  52. Text
  53. ID                                       : 3
  54. Format                                   : UTF-8
  55. Codec ID                                 : S_TEXT/UTF8
  56. Codec ID/Info                            : UTF-8 Plain Text
  57. Duration                                 : 1 h 40 min
  58. Bit rate                                 : 67 b/s
  59. Count of elements                        : 1331
  60. Stream size                              : 50.0 KiB (0%)
  61. Language                                 : English
  62. Default                                  : Yes
  63. Forced                                   : No

  64. Menu
  65. 00:00:00.000                             : en:1
  66. 00:01:08.000                             : en:2
  67. 00:09:39.000                             : en:3
  68. 00:20:24.000                             : en:4
  69. 00:30:41.000                             : en:5
  70. 00:40:35.000                             : en:6
  71. 00:50:17.000                             : en:7
  72. 00:58:50.000                             : en:8
  73. 01:09:39.000                             : en:9
  74. 01:20:55.000                             : en:10
  75. 01:29:17.000                             : en:11
  76. 01:36:15.000                             : en:12
复制代码

173808kxujh3hqd0x81y12.png 逆风蝶舞 Float.Like.A.Butterfly.2018.1080p.WEB-DL.DD5.1.H264-FGT 3.50GB-3.png 逆风蝶舞 Float.Like.A.Butterfly.2018.1080p.WEB-DL.DD5.1.H264-FGT 3.50GB-4.png






回复

使用道具 举报

发表于 2020-1-15 08:16:06 | 显示全部楼层
楼主发贴辛苦了,谢谢楼主分享!我觉得蓝光电影网是注册对了!
回复 支持 反对

使用道具 举报

懒得打字嘛,点击右侧快捷回复 【右侧内容,后台自定义】
您需要登录后才可以回帖 登录 | 立即加入

本版积分规则

现在加入蓝光电影网,注册一个账号
上个主题 下个主题 快速回复 收藏帖子 返回列表 客服中心 搜索

手机版|小黑屋| 蓝光电影网 |网站地图 

Copyright © 2015-2019 Comsenz Inc.  Template by 蓝光电影论坛 All Rights Reserved.

Powered by 蓝光电影网 X3.4

特别声明:本站所有资源均由网上收集而来,版权归原影音公司所有,如果侵犯了你的权益,请通知我们,我们会及时删除侵权内容.

快速回复 返回顶部 返回列表