找回密码

蓝光电影网

查看: 651|回复: 9

[音乐] 西部明星/西部之星 Western.Stars.2019.1080p.BluRay.x264.TrueHD.7.1.Atmos-FGT 7.76GB

[复制链接]

 成长值: 27235

发表于 2020-1-14 17:27:30 | 显示全部楼层 |阅读模式
西部明星/西部之星 Western.Stars.2019.1080p.BluRay.x264.TrueHD.7.1.Atmos-FGT 7.76GB-1.png

译  名 西部明星 / 西部之星
片  名 Western Stars
年  代 2019
产  地 美国
类  别 纪录片 / 音乐
语  言 英语
上映日期 2019-09-12(多伦多电影节) / 2019-10-25(美国)
IMDb评分  7.6/10 from 747 users
IMDb链接  https://www.imdb.com/title/tt10687158
豆瓣评分 0/10 from 0 users
豆瓣链接 https://movie.douban.com/subject/34663538/
片  长 83分钟
导  演 托姆·齐穆尼 Thom Zimny / 布鲁斯·斯普林斯汀 Bruce Springsteen
主  演 布鲁斯·斯普林斯汀 Bruce Springsteen


标  签 美国 | Documentary | 2019 | 纪录片 | 等候 | 电影 | 摇滚 | music

简  介  

  该片也是70岁的斯普林斯汀的最新专辑的同名电影,他与《斯普林斯汀在百老汇》的导演Thom Zimny一起执导,聚焦他如今的生活、心态和对音乐和舞台的感悟,还有他那有100年历史、“充满灵性”的谷仓,他如何回头和向前看,“我花了35年除掉自己性格中那些毁灭性的东西”。

获奖情况  

  第67届美国音效剪辑协会奖(2020)
  金卷轴奖 最佳音乐片音乐剪辑(提名)
  1. Video
  2. ID                                       : 1
  3. Format                                   : AVC
  4. Format/Info                              : Advanced Video Codec
  5. Format profile                           : High@L4
  6. Format settings                          : CABAC / 5 Ref Frames
  7. Format settings, CABAC                   : Yes
  8. Format settings, Reference frames        : 5 frames
  9. Codec ID                                 : V_MPEG4/ISO/AVC
  10. Duration                                 : 1 h 23 min
  11. Bit rate                                 : 8 767 kb/s
  12. Width                                    : 1 920 pixels
  13. Height                                   : 808 pixels
  14. Display aspect ratio                     : 2.40:1
  15. Frame rate mode                          : Constant
  16. Frame rate                               : 23.976 (24000/1001) FPS
  17. Color space                              : YUV
  18. Chroma subsampling                       : 4:2:0
  19. Bit depth                                : 8 bits
  20. Scan type                                : Progressive
  21. Bits/(Pixel*Frame)                       : 0.236
  22. Stream size                              : 5.09 GiB (66%)
  23. Title                                    : Western.Stars.2019.1080p.BluRay.x264.TrueHD.7.1.Atmos-FGT
  24. Writing library                          : x264 core 158 r2988 7817004
  25. Encoding settings                        : cabac=1 / ref=5 / deblock=1:-3:-3 / analyse=0x3:0x133 / me=umh / subme=9 / psy=1 / psy_rd=1.00:0.00 / mixed_ref=1 / me_range=24 / chroma_me=1 / trellis=1 / 8x8dct=1 / cqm=0 / deadzone=21,11 / fast_pskip=0 / chroma_qp_offset=-2 / threads=24 / lookahead_threads=4 / sliced_threads=0 / nr=0 / decimate=1 / interlaced=0 / bluray_compat=0 / constrained_intra=0 / bframes=8 / b_pyramid=2 / b_adapt=2 / b_bias=0 / direct=3 / weightb=1 / open_gop=0 / weightp=2 / keyint=250 / keyint_min=23 / scenecut=40 / intra_refresh=0 / rc_lookahead=60 / rc=2pass / mbtree=1 / bitrate=8767 / ratetol=1.0 / qcomp=0.60 / qpmin=0 / qpmax=69 / qpstep=4 / cplxblur=20.0 / qblur=0.5 / vbv_maxrate=62500 / vbv_bufsize=78125 / nal_hrd=none / filler=0 / ip_ratio=1.40 / aq=1:1.00
  26. Default                                  : Yes
  27. Forced                                   : No

  28. Audio #1
  29. ID                                       : 2
  30. Format                                   : MLP FBA 16-ch
  31. Format/Info                              : Meridian Lossless Packing FBA with 16-channel presentation
  32. Commercial name                          : Dolby TrueHD with Dolby Atmos
  33. Codec ID                                 : A_TRUEHD
  34. Duration                                 : 1 h 23 min
  35. Bit rate mode                            : Variable
  36. Bit rate                                 : 3 870 kb/s
  37. Maximum bit rate                         : 5 568 kb/s
  38. Channel(s)                               : 8 channels
  39. Channel layout                           : L R C LFE Ls Rs Lb Rb
  40. Sampling rate                            : 48.0 kHz
  41. Frame rate                               : 1 200.000 FPS (40 SPF)
  42. Compression mode                         : Lossless
  43. Stream size                              : 2.25 GiB (29%)
  44. Title                                    : Western.Stars.2019.1080p.BluRay.x264.TrueHD.7.1.Atmos-FGT
  45. Language                                 : English
  46. Default                                  : Yes
  47. Forced                                   : No
  48. Number of dynamic objects                : 15
  49. Bed channel count                        : 1 channel
  50. Bed channel configuration                : LFE

  51. Audio #2
  52. ID                                       : 3
  53. Format                                   : AC-3
  54. Format/Info                              : Audio Coding 3
  55. Commercial name                          : Dolby Digital
  56. Codec ID                                 : A_AC3
  57. Duration                                 : 1 h 23 min
  58. Bit rate mode                            : Constant
  59. Bit rate                                 : 640 kb/s
  60. Channel(s)                               : 6 channels
  61. Channel layout                           : L R C LFE Ls Rs
  62. Sampling rate                            : 48.0 kHz
  63. Frame rate                               : 31.250 FPS (1536 SPF)
  64. Bit depth                                : 16 bits
  65. Compression mode                         : Lossy
  66. Stream size                              : 381 MiB (5%)
  67. Title                                    : Western.Stars.2019.1080p.BluRay.x264.TrueHD.7.1.Atmos-FGT
  68. Language                                 : English
  69. Service kind                             : Complete Main
  70. Default                                  : No
  71. Forced                                   : No

  72. Text #1
  73. ID                                       : 4
  74. Format                                   : UTF-8
  75. Codec ID                                 : S_TEXT/UTF8
  76. Codec ID/Info                            : UTF-8 Plain Text
  77. Duration                                 : 1 h 17 min
  78. Bit rate                                 : 49 b/s
  79. Count of elements                        : 728
  80. Stream size                              : 28.2 KiB (0%)
  81. Title                                    : English-SRT
  82. Language                                 : English
  83. Default                                  : Yes
  84. Forced                                   : No

  85. Text #2
  86. ID                                       : 5
  87. Format                                   : PGS
  88. Muxing mode                              : zlib
  89. Codec ID                                 : S_HDMV/PGS
  90. Codec ID/Info                            : Picture based subtitle format used on BDs/HD-DVDs
  91. Duration                                 : 1 h 18 min
  92. Bit rate                                 : 28.8 kb/s
  93. Count of elements                        : 1549
  94. Stream size                              : 16.2 MiB (0%)
  95. Title                                    : English-PGS
  96. Language                                 : English
  97. Default                                  : No
  98. Forced                                   : No

  99. Menu
  100. 00:00:00.000                             : en:Chapter 01
  101. 00:00:05.171                             : en:Chapter 02
  102. 00:03:47.810                             : en:Chapter 03
  103. 00:09:11.592                             : en:Chapter 04
  104. 00:15:24.798                             : en:Chapter 05
  105. 00:20:37.861                             : en:Chapter 06
  106. 00:25:14.262                             : en:Chapter 07
  107. 00:31:14.163                             : en:Chapter 08
  108. 00:37:18.527                             : en:Chapter 09
  109. 00:43:57.843                             : en:Chapter 10
  110. 00:48:21.815                             : en:Chapter 11
  111. 00:50:21.059                             : en:Chapter 12
  112. 00:58:10.069                             : en:Chapter 13
  113. 01:03:04.322                             : en:Chapter 14
  114. 01:09:51.729                             : en:Chapter 15
  115. 01:15:58.470                             : en:Chapter 16
  116. 01:18:59.526                             : en:Chapter 17
复制代码

西部明星/西部之星 Western.Stars.2019.1080p.BluRay.x264.TrueHD.7.1.Atmos-FGT 7.76GB-2.png 西部明星/西部之星 Western.Stars.2019.1080p.BluRay.x264.TrueHD.7.1.Atmos-FGT 7.76GB-3.png 西部明星/西部之星 Western.Stars.2019.1080p.BluRay.x264.TrueHD.7.1.Atmos-FGT 7.76GB-4.png






回复

使用道具 举报

发表于 2020-1-14 19:55:56 | 显示全部楼层
谢谢楼主分享
回复 支持 反对

使用道具 举报

发表于 2020-1-14 20:55:57 | 显示全部楼层
谢谢楼主分享
回复 支持 反对

使用道具 举报

发表于 2020-1-15 00:30:33 | 显示全部楼层
Thanks for sharing
回复 支持 反对

使用道具 举报

发表于 2020-1-15 09:33:51 | 显示全部楼层
楼主发贴辛苦了,谢谢楼主分享!我觉得蓝光电影网是注册对了!
回复 支持 反对

使用道具 举报

发表于 2020-1-15 19:06:37 | 显示全部楼层
感谢楼主分享。
回复 支持 反对

使用道具 举报

发表于 2020-1-19 10:06:25 | 显示全部楼层

感谢楼主分享。
回复 支持 反对

使用道具 举报

已抛锚 成长值: 590

发表于 2020-2-25 06:19:51 | 显示全部楼层
小手一抖 金币到手
回复 支持 反对

使用道具 举报

发表于 2020-6-29 10:26:36 | 显示全部楼层
感谢楼主分享
回复 支持 反对

使用道具 举报

发表于 2020-7-27 10:01:15 | 显示全部楼层
谢谢分享,辛苦了
回复 支持 反对

使用道具 举报

懒得打字嘛,点击右侧快捷回复 【右侧内容,后台自定义】
您需要登录后才可以回帖 登录 | 立即加入

本版积分规则

现在加入蓝光电影网,注册一个账号
上个主题 下个主题 快速回复 收藏帖子 返回列表 客服中心 搜索

手机版|小黑屋| 蓝光电影网 |网站地图 

Copyright © 2015-2019 Comsenz Inc.  Template by 蓝光电影论坛 All Rights Reserved.

Powered by 蓝光电影网 X3.4

特别声明:本站所有资源均由网上收集而来,版权归原影音公司所有,如果侵犯了你的权益,请通知我们,我们会及时删除侵权内容.

快速回复 返回顶部 返回列表