找回密码

蓝光电影网

查看: 690|回复: 17

[动作] 攻击链 Kill.Chain.2019.1080p.Bluray.x264-FilmHD 6.56GB

[复制链接]

 成长值: 27235

发表于 2020-1-14 17:20:19 | 显示全部楼层 |阅读模式
攻击链 Kill.Chain.2019.1080p.Bluray.x264-FilmHD 6.56GB-1.png

译  名 攻击链
片  名 Kill Chain
年  代 2019
产  地 美国
类  别 动作 / 惊悚
语  言 英语
上映日期 2019-10-18(美国)
IMDb评分  5.1/10 from 1553 users
IMDb链接  https://www.imdb.com/title/tt8535180
豆瓣评分 5.8/10 from 536 users
豆瓣链接 https://movie.douban.com/subject/30218533/
片  长 91分钟
导  演 肯·桑泽尔 Ken Sanzel
编  剧 肯·桑泽尔 Ken Sanzel
主  演 尼古拉斯·凯奇 Nicolas Cage
       恩里克·克兰东尼 Enrico Colantoni
       瑞恩·柯万腾 Ryan Kwanten
       阿里米·巴尔拉德 Alimi Ballard
       安吉·塞佩达 Angie Cepeda
       乔恩·马克 Jon Mack
       埃迪·马丁内斯 Eddie Martinez
       卢纳·巴克斯特 Luna Baxter
       Anabelle Acosta
       Pedro Calvo
       Sara Elizabeth Avila
       Hector Alexander Gomez
       Juan Andres Angulo
       Yusuf Tangarife
       Jhon Bedoya


标  签 尼古拉斯凯奇 | 犯罪 | 动作 | 美国 | 暴力 | 2019 | 美国电影 | 尼古拉斯·凯奇

简  介  

  尼古拉斯·凯奇或将出演全新影片[攻击链](Kill Chain,暂译),该片由肯·桑泽尔([替身杀手])自编自导。故事讲述三个陌生人,他们彼此将陷入前所未有的冲突中。该片在戛纳电影节上被形容为最棒的黑色侦探影片。千禧年影业负责制作。
  1. Video
  2. ID                                       : 1
  3. Format                                   : AVC
  4. Format/Info                              : Advanced Video Codec
  5. Format profile                           : High@L4
  6. Format settings                          : CABAC / 4 Ref Frames
  7. Format settings, CABAC                   : Yes
  8. Format settings, Reference frames        : 4 frames
  9. Codec ID                                 : V_MPEG4/ISO/AVC
  10. Duration                                 : 1 h 31 min
  11. Bit rate                                 : 8 773 kb/s
  12. Width                                    : 1 920 pixels
  13. Height                                   : 1 040 pixels
  14. Display aspect ratio                     : 1.85:1
  15. Frame rate mode                          : Constant
  16. Frame rate                               : 23.976 (24000/1001) FPS
  17. Color space                              : YUV
  18. Chroma subsampling                       : 4:2:0
  19. Bit depth                                : 8 bits
  20. Scan type                                : Progressive
  21. Bits/(Pixel*Frame)                       : 0.183
  22. Stream size                              : 5.46 GiB (83%)
  23. Writing library                          : x264 core 159 r2991 1771b55
  24. Encoding settings                        : cabac=1 / ref=4 / deblock=1:-3:-3 / analyse=0x3:0x113 / me=umh / subme=8 / psy=1 / psy_rd=1.00:0.00 / mixed_ref=1 / me_range=32 / chroma_me=1 / trellis=2 / 8x8dct=1 / cqm=0 / deadzone=21,11 / fast_pskip=1 / chroma_qp_offset=-2 / threads=18 / lookahead_threads=3 / sliced_threads=0 / nr=0 / decimate=1 / interlaced=0 / bluray_compat=0 / constrained_intra=0 / bframes=3 / b_pyramid=2 / b_adapt=2 / b_bias=0 / direct=3 / weightb=1 / open_gop=0 / weightp=2 / keyint=240 / keyint_min=24 / scenecut=40 / intra_refresh=0 / rc_lookahead=50 / rc=2pass / mbtree=1 / bitrate=8773 / ratetol=1.0 / qcomp=0.60 / qpmin=0 / qpmax=69 / qpstep=4 / cplxblur=20.0 / qblur=0.5 / ip_ratio=1.40 / aq=3:0.80
  25. Default                                  : Yes
  26. Forced                                   : No
  27. Statistics Tags Issue                    : no_variable_data 1970-01-01 00:00:00 / no_variable_data 2010-02-22 21:41:29
  28. FromStats_BitRate                        : 8772474
  29. FromStats_Duration                       : 01:31:17.180000000
  30. FromStats_FrameCount                     : 131321
  31. FromStats_StreamSize                     : 6006052852

  32. Audio
  33. ID                                       : 2
  34. Format                                   : DTS
  35. Format/Info                              : Digital Theater Systems
  36. Codec ID                                 : A_DTS
  37. Duration                                 : 1 h 31 min
  38. Bit rate mode                            : Constant
  39. Bit rate                                 : 1 509 kb/s
  40. Channel(s)                               : 6 channels
  41. Channel layout                           : C L R Ls Rs LFE
  42. Sampling rate                            : 48.0 kHz
  43. Frame rate                               : 93.750 FPS (512 SPF)
  44. Bit depth                                : 24 bits
  45. Compression mode                         : Lossy
  46. Stream size                              : 985 MiB (15%)
  47. Language                                 : English
  48. Default                                  : Yes
  49. Forced                                   : No
  50. Statistics Tags Issue                    : no_variable_data 1970-01-01 00:00:00 / no_variable_data 2010-02-22 21:41:29
  51. FromStats_BitRate                        : 1508999
  52. FromStats_Duration                       : 01:31:17.142000000
  53. FromStats_FrameCount                     : 513482
  54. FromStats_StreamSize                     : 1033125784

  55. Menu
  56. 00:00:00.000                             : en:Chapter 01
  57. 00:07:55.475                             : en:Chapter 02
  58. 00:24:48.487                             : en:Chapter 03
  59. 00:43:08.586                             : en:Chapter 04
  60. 00:55:34.331                             : en:Chapter 05
  61. 01:06:36.993                             : en:Chapter 06
  62. 01:17:23.639                             : en:Chapter 07
  63. 01:27:47.262                             : en:Chapter 08
复制代码

攻击链 Kill.Chain.2019.1080p.Bluray.x264-FilmHD 6.56GB-2.png






回复

使用道具 举报

发表于 2020-1-14 19:03:06 | 显示全部楼层

我看不错噢 谢谢楼主!蓝光电影网越来越好!
回复 支持 反对

使用道具 举报

 成长值: 3985

发表于 2020-1-15 09:18:17 | 显示全部楼层
谢谢楼主无私分享。
回复 支持 反对

使用道具 举报

发表于 2020-1-15 16:27:59 | 显示全部楼层

楼主太厉害了!楼主,电影应该很好看我觉得蓝光电影网真是个好地方!
回复 支持 反对

使用道具 举报

发表于 2020-1-15 21:05:04 | 显示全部楼层
凯奇大叔又缺钱了~
回复 支持 反对

使用道具 举报

发表于 2020-1-15 22:06:52 | 显示全部楼层
看不错噢 谢谢楼主!蓝光电影网越来越好!
回复 支持 反对

使用道具 举报

发表于 2020-1-15 23:50:14 | 显示全部楼层
Thanks for sharing
回复 支持 反对

使用道具 举报

发表于 2020-1-16 10:33:37 | 显示全部楼层
楼主发贴辛苦了,谢谢楼主分享!我觉得蓝光电影网是注册对了!
回复 支持 反对

使用道具 举报

发表于 2020-1-19 09:44:48 | 显示全部楼层

看不错噢 谢谢楼主!蓝光电影网越来越好!
回复 支持 反对

使用道具 举报

发表于 2020-1-19 20:47:42 | 显示全部楼层
谢谢楼主无私分享。
回复 支持 反对

使用道具 举报

懒得打字嘛,点击右侧快捷回复 【右侧内容,后台自定义】
您需要登录后才可以回帖 登录 | 立即加入

本版积分规则

现在加入蓝光电影网,注册一个账号
上个主题 下个主题 快速回复 收藏帖子 返回列表 客服中心 搜索

手机版|小黑屋| 蓝光电影网 |网站地图 

Copyright © 2015-2019 Comsenz Inc.  Template by 蓝光电影论坛 All Rights Reserved.

Powered by 蓝光电影网 X3.4

特别声明:本站所有资源均由网上收集而来,版权归原影音公司所有,如果侵犯了你的权益,请通知我们,我们会及时删除侵权内容.

快速回复 返回顶部 返回列表