找回密码

蓝光电影网

查看: 229|回复: 6

[剧情] 暗杀坂本龙马 The.Assassination.of.Ryoma.1974.JAPANESE.1080p.BluRay.x264-HANDJOB 9.50GB

[复制链接]

 成长值: 24205

发表于 2020-1-14 17:19:37 | 显示全部楼层 |阅读模式
171854d39hsi1c9in3c1lc.png

译  名 暗杀坂本龙马 / Ryoma ansatsu / The Assassination of Ryoma / 龙马暗杀
片  名 竜馬暗殺
年  代 1974
产  地 日本
类  别 剧情 / 动作 / 历史
语  言 日语
上映日期 1974-08-03
IMDb评分  6.5/10 from 100 users
IMDb链接  https://www.imdb.com/title/tt0186835
豆瓣评分 7.7/10 from 261 users
豆瓣链接 https://movie.douban.com/subject/1813144/
片  长 118 分钟
导  演 黑木和雄 Kazuo Kuroki
编  剧 清水邦夫 / 田边泰志
主  演 原田芳雄 Yoshio Harada
       石桥莲司 Renji Ishibashi
       松田优作 Yusaku Matsuda


标  签 日本 | 黑木和雄 | 日本电影 | 1974 | 松田优作 | 原田芳雄 | 1970s | 坂本龙马

简  介  

  幕府末期,群雄并起,日本上下动荡不安。在英豪辈出的时代,坂本龙马以其卓越的气魄和超前的思想在历史中占有一席之地。影片则主要描述坂本龙马被暗杀前最后两日的生活。
  庆应三年十一月十三日,京都下着冰雹,坂本龙马(原田芳雄 饰)栖身于海援队经常落脚之地近江屋。“大政奉还”后局势愈加不稳,此时的坂本已被佐幕派和勤王派双方视为危险人物。无所事事的坂本与妓女厮混,更因手枪不慎走火引来刺客。昔日好友中冈慎太郎(石桥莲司 饰)和萍水相逢的右太(松田优作 饰)放下屠刀,与坂本结为挚友。慎太郎因此入狱,坂本与右太将其救出。后右太被杀,坂本与慎太郎密商逃亡之事的午夜,死神的罗网却已悄悄张开……
  1. Video
  2. ID                                       : 1
  3. Format                                   : AVC
  4. Format/Info                              : Advanced Video Codec
  5. Format profile                           : High@L4
  6. Format settings                          : CABAC / 5 Ref Frames
  7. Format settings, CABAC                   : Yes
  8. Format settings, Reference frames        : 5 frames
  9. Codec ID                                 : V_MPEG4/ISO/AVC
  10. Duration                                 : 1 h 57 min
  11. Bit rate                                 : 11.1 Mb/s
  12. Width                                    : 1 440 pixels
  13. Height                                   : 1 080 pixels
  14. Display aspect ratio                     : 4:3
  15. Frame rate mode                          : Constant
  16. Frame rate                               : 23.976 (24000/1001) FPS
  17. Color space                              : YUV
  18. Chroma subsampling                       : 4:2:0
  19. Bit depth                                : 8 bits
  20. Scan type                                : Progressive
  21. Bits/(Pixel*Frame)                       : 0.299
  22. Stream size                              : 9.18 GiB (97%)
  23. Writing library                          : x264 core 157 r2935 545de2f
  24. Encoding settings                        : cabac=1 / ref=5 / deblock=1:-3:-3 / analyse=0x3:0x133 / me=umh / subme=10 / psy=1 / psy_rd=1.00:0.00 / mixed_ref=1 / me_range=32 / chroma_me=1 / trellis=2 / 8x8dct=1 / cqm=0 / deadzone=21,11 / fast_pskip=0 / chroma_qp_offset=-2 / threads=18 / lookahead_threads=4 / sliced_threads=0 / nr=0 / decimate=0 / interlaced=0 / bluray_compat=0 / constrained_intra=0 / bframes=16 / b_pyramid=2 / b_adapt=2 / b_bias=0 / direct=3 / weightb=1 / open_gop=0 / weightp=1 / keyint=240 / keyint_min=24 / scenecut=40 / intra_refresh=0 / rc_lookahead=60 / rc=crf / mbtree=0 / crf=19.0 / qcomp=0.60 / qpmin=0 / qpmax=69 / qpstep=4 / vbv_maxrate=62500 / vbv_bufsize=78125 / crf_max=0.0 / nal_hrd=none / filler=0 / ip_ratio=1.40 / pb_ratio=1.30 / aq=2:1.00
  25. Default                                  : Yes
  26. Forced                                   : No
  27. Color range                              : Limited
  28. Color primaries                          : BT.709
  29. Transfer characteristics                 : BT.709
  30. Matrix coefficients                      : BT.709

  31. Audio
  32. ID                                       : 2
  33. Format                                   : FLAC
  34. Format/Info                              : Free Lossless Audio Codec
  35. Codec ID                                 : A_FLAC
  36. Duration                                 : 1 h 57 min
  37. Bit rate mode                            : Variable
  38. Bit rate                                 : 384 kb/s
  39. Channel(s)                               : 2 channels
  40. Channel layout                           : L R
  41. Sampling rate                            : 48.0 kHz
  42. Frame rate                               : 11.719 FPS (4096 SPF)
  43. Bit depth                                : 16 bits
  44. Compression mode                         : Lossless
  45. Stream size                              : 324 MiB (3%)
  46. Writing library                          : libFLAC 1.3.2 (UTC 2017-01-01)
  47. Language                                 : Japanese
  48. Default                                  : Yes
  49. Forced                                   : No

  50. Text
  51. ID                                       : 3
  52. Format                                   : UTF-8
  53. Codec ID                                 : S_TEXT/UTF8
  54. Codec ID/Info                            : UTF-8 Plain Text
  55. Duration                                 : 1 h 57 min
  56. Bit rate                                 : 30 b/s
  57. Count of elements                        : 785
  58. Stream size                              : 26.5 KiB (0%)
  59. Language                                 : English
  60. Default                                  : Yes
  61. Forced                                   : No

  62. Menu
  63. 00:00:00.000                             : :Chapter 1
  64. 00:09:19.225                             : :Chapter 2
  65. 00:20:10.501                             : :Chapter 3
  66. 00:27:29.398                             : :Chapter 4
  67. 00:36:41.449                             : :Chapter 5
  68. 00:48:50.719                             : :Chapter 6
  69. 00:57:36.244                             : :Chapter 7
  70. 01:04:55.225                             : :Chapter 8
  71. 01:17:45.995                             : :Chapter 9
  72. 01:23:12.154                             : :Chapter 10
  73. 01:31:26.856                             : :Chapter 11
  74. 01:41:13.818                             : :Chapter 12
  75. 01:48:24.081                             : :Chapter 13
  76. 01:57:48.728                             : :Chapter 14
复制代码

暗杀坂本龙马 The.Assassination.of.Ryoma.1974.JAPANESE.1080p.BluRay.x264-HANDJOB 9.50GB-2.png 暗杀坂本龙马 The.Assassination.of.Ryoma.1974.JAPANESE.1080p.BluRay.x264-HANDJOB 9.50GB-3.png 暗杀坂本龙马 The.Assassination.of.Ryoma.1974.JAPANESE.1080p.BluRay.x264-HANDJOB 9.50GB-4.png






回复

使用道具 举报

发表于 2020-1-14 21:33:59 | 显示全部楼层
楼主发贴辛苦了,谢谢楼主分享!我觉得蓝光电影网是注册对了!
回复 支持 反对

使用道具 举报

已抛锚 成长值: 240

发表于 2020-1-15 09:52:13 | 显示全部楼层
好片子!值得拥有!多谢楼主分享资源!
回复 支持 反对

使用道具 举报

发表于 2020-1-15 19:20:11 | 显示全部楼层

这个帖子不回对不起自己!我想我是一天也不能离开蓝光电影网
回复 支持 反对

使用道具 举报

发表于 2020-1-15 23:52:00 | 显示全部楼层
Thanks for sharing
回复 支持 反对

使用道具 举报

发表于 5 天前 | 显示全部楼层

楼主太厉害了!楼主,电影应该很好看我觉得蓝光电影网真是个好地方!
回复 支持 反对

使用道具 举报

发表于 昨天 19:03 | 显示全部楼层
无所事事的坂本与妓女厮混,更因手枪不慎走火引来刺客。
不愧是浪子启蒙家……
回复 支持 反对

使用道具 举报

懒得打字嘛,点击右侧快捷回复 【右侧内容,后台自定义】
您需要登录后才可以回帖 登录 | 立即加入

本版积分规则

现在加入蓝光电影网,注册一个账号
上个主题 下个主题 快速回复 收藏帖子 返回列表 客服中心 搜索

手机版|小黑屋| 蓝光电影网 |网站地图 

Copyright © 2015-2019 Comsenz Inc.  Template by 蓝光电影论坛 All Rights Reserved.

Powered by 蓝光电影网 X3.4

特别声明:本站所有资源均由网上收集而来,版权归原影音公司所有,如果侵犯了你的权益,请通知我们,我们会及时删除侵权内容.

快速回复 返回顶部 返回列表