找回密码

蓝光电影网

查看: 107|回复: 1

[音乐] 西部明星/西部之星 Western.Stars.2019.1080p.BluRay.x264.DTS-HD.MA.7.1-FGT 7.28GB

[复制链接]

 成长值: 24205

发表于 2020-1-14 17:17:24 | 显示全部楼层 |阅读模式
西部明星/西部之星 Western.Stars.2019.1080p.BluRay.x264.DTS-HD.MA.7.1-FGT 7.28GB-1.png

译  名 西部明星 / 西部之星
片  名 Western Stars
年  代 2019
产  地 美国
类  别 纪录片 / 音乐
语  言 英语
上映日期 2019-09-12(多伦多电影节) / 2019-10-25(美国)
IMDb评分  7.6/10 from 747 users
IMDb链接  https://www.imdb.com/title/tt10687158
豆瓣评分 0/10 from 0 users
豆瓣链接 https://movie.douban.com/subject/34663538/
片  长 83分钟
导  演 托姆·齐穆尼 Thom Zimny / 布鲁斯·斯普林斯汀 Bruce Springsteen
主  演 布鲁斯·斯普林斯汀 Bruce Springsteen


标  签 美国 | Documentary | 2019 | 纪录片 | 等候 | 电影 | 摇滚 | music

简  介  

  该片也是70岁的斯普林斯汀的最新专辑的同名电影,他与《斯普林斯汀在百老汇》的导演Thom Zimny一起执导,聚焦他如今的生活、心态和对音乐和舞台的感悟,还有他那有100年历史、“充满灵性”的谷仓,他如何回头和向前看,“我花了35年除掉自己性格中那些毁灭性的东西”。

获奖情况  

  第67届美国音效剪辑协会奖(2020)
  金卷轴奖 最佳音乐片音乐剪辑(提名)
  1. Video
  2. ID                                       : 1
  3. Format                                   : AVC
  4. Format/Info                              : Advanced Video Codec
  5. Format profile                           : High@L4
  6. Format settings                          : CABAC / 5 Ref Frames
  7. Format settings, CABAC                   : Yes
  8. Format settings, Reference frames        : 5 frames
  9. Codec ID                                 : V_MPEG4/ISO/AVC
  10. Duration                                 : 1 h 23 min
  11. Bit rate                                 : 8 767 kb/s
  12. Width                                    : 1 920 pixels
  13. Height                                   : 808 pixels
  14. Display aspect ratio                     : 2.40:1
  15. Frame rate mode                          : Constant
  16. Frame rate                               : 23.976 (24000/1001) FPS
  17. Color space                              : YUV
  18. Chroma subsampling                       : 4:2:0
  19. Bit depth                                : 8 bits
  20. Scan type                                : Progressive
  21. Bits/(Pixel*Frame)                       : 0.236
  22. Stream size                              : 5.09 GiB (70%)
  23. Title                                    : Western.Stars.2019.1080p.BluRay.x264.DTS-HD.MA.7.1-FGT
  24. Writing library                          : x264 core 158 r2988 7817004
  25. Encoding settings                        : cabac=1 / ref=5 / deblock=1:-3:-3 / analyse=0x3:0x133 / me=umh / subme=9 / psy=1 / psy_rd=1.00:0.00 / mixed_ref=1 / me_range=24 / chroma_me=1 / trellis=1 / 8x8dct=1 / cqm=0 / deadzone=21,11 / fast_pskip=0 / chroma_qp_offset=-2 / threads=24 / lookahead_threads=4 / sliced_threads=0 / nr=0 / decimate=1 / interlaced=0 / bluray_compat=0 / constrained_intra=0 / bframes=8 / b_pyramid=2 / b_adapt=2 / b_bias=0 / direct=3 / weightb=1 / open_gop=0 / weightp=2 / keyint=250 / keyint_min=23 / scenecut=40 / intra_refresh=0 / rc_lookahead=60 / rc=2pass / mbtree=1 / bitrate=8767 / ratetol=1.0 / qcomp=0.60 / qpmin=0 / qpmax=69 / qpstep=4 / cplxblur=20.0 / qblur=0.5 / vbv_maxrate=62500 / vbv_bufsize=78125 / nal_hrd=none / filler=0 / ip_ratio=1.40 / aq=1:1.00
  26. Default                                  : Yes
  27. Forced                                   : No

  28. Audio
  29. ID                                       : 2
  30. Format                                   : DTS XLL
  31. Format/Info                              : Digital Theater Systems
  32. Commercial name                          : DTS-HD Master Audio
  33. Codec ID                                 : A_DTS
  34. Duration                                 : 1 h 23 min
  35. Bit rate mode                            : Variable
  36. Bit rate                                 : 3 757 kb/s
  37. Channel(s)                               : 8 channels
  38. Channel layout                           : C L R LFE Lb Rb Lss Rss
  39. Sampling rate                            : 48.0 kHz
  40. Frame rate                               : 93.750 FPS (512 SPF)
  41. Bit depth                                : 24 bits
  42. Compression mode                         : Lossless
  43. Stream size                              : 2.18 GiB (30%)
  44. Title                                    : Western.Stars.2019.1080p.BluRay.x264.DTS-HD.MA.7.1-FGT
  45. Language                                 : English
  46. Default                                  : Yes
  47. Forced                                   : No

  48. Text #1
  49. ID                                       : 3
  50. Format                                   : UTF-8
  51. Codec ID                                 : S_TEXT/UTF8
  52. Codec ID/Info                            : UTF-8 Plain Text
  53. Duration                                 : 1 h 17 min
  54. Bit rate                                 : 49 b/s
  55. Count of elements                        : 728
  56. Stream size                              : 28.2 KiB (0%)
  57. Title                                    : English-SRT
  58. Language                                 : English
  59. Default                                  : Yes
  60. Forced                                   : No

  61. Text #2
  62. ID                                       : 4
  63. Format                                   : PGS
  64. Muxing mode                              : zlib
  65. Codec ID                                 : S_HDMV/PGS
  66. Codec ID/Info                            : Picture based subtitle format used on BDs/HD-DVDs
  67. Duration                                 : 1 h 18 min
  68. Bit rate                                 : 28.8 kb/s
  69. Count of elements                        : 1549
  70. Stream size                              : 16.2 MiB (0%)
  71. Title                                    : English-PGS
  72. Language                                 : English
  73. Default                                  : No
  74. Forced                                   : No

  75. Menu
  76. 00:00:00.000                             : en:Chapter 01
  77. 00:00:05.171                             : en:Chapter 02
  78. 00:03:47.810                             : en:Chapter 03
  79. 00:09:11.592                             : en:Chapter 04
  80. 00:15:24.798                             : en:Chapter 05
  81. 00:20:37.861                             : en:Chapter 06
  82. 00:25:14.262                             : en:Chapter 07
  83. 00:31:14.163                             : en:Chapter 08
  84. 00:37:18.527                             : en:Chapter 09
  85. 00:43:57.843                             : en:Chapter 10
  86. 00:48:21.815                             : en:Chapter 11
  87. 00:50:21.059                             : en:Chapter 12
  88. 00:58:10.069                             : en:Chapter 13
  89. 01:03:04.322                             : en:Chapter 14
  90. 01:09:51.729                             : en:Chapter 15
  91. 01:15:58.470                             : en:Chapter 16
  92. 01:18:59.526                             : en:Chapter 17
复制代码

西部明星/西部之星 Western.Stars.2019.1080p.BluRay.x264.DTS-HD.MA.7.1-FGT 7.28GB-2.png 西部明星/西部之星 Western.Stars.2019.1080p.BluRay.x264.DTS-HD.MA.7.1-FGT 7.28GB-3.png 西部明星/西部之星 Western.Stars.2019.1080p.BluRay.x264.DTS-HD.MA.7.1-FGT 7.28GB-4.png






回复

使用道具 举报

发表于 7 天前 | 显示全部楼层

这东西我收了!谢谢楼主!蓝光电影网真好!
回复 支持 反对

使用道具 举报

懒得打字嘛,点击右侧快捷回复 【右侧内容,后台自定义】
您需要登录后才可以回帖 登录 | 立即加入

本版积分规则

现在加入蓝光电影网,注册一个账号
上个主题 下个主题 快速回复 收藏帖子 返回列表 客服中心 搜索

手机版|小黑屋| 蓝光电影网 |网站地图 

Copyright © 2015-2019 Comsenz Inc.  Template by 蓝光电影论坛 All Rights Reserved.

Powered by 蓝光电影网 X3.4

特别声明:本站所有资源均由网上收集而来,版权归原影音公司所有,如果侵犯了你的权益,请通知我们,我们会及时删除侵权内容.

快速回复 返回顶部 返回列表