找回密码

蓝光电影网

查看: 871|回复: 25

[动作] 敢死七镖客/光荣七号 The.Glorious.Seven.2019.1080p.BluRay.REMUX.AVC.DTS-HD.MA.5.1-FGT 17.66GB

[复制链接]

 成长值: 27235

发表于 2020-1-14 17:08:42 | 显示全部楼层 |阅读模式
敢死七镖客/光荣七号 The.Glorious.Seven.2019.1080p.BluRay.REMUX.AVC.DTS-HD.MA.5.1-FGT 17.66GB-1.png

译  名 敢死七镖客 / 光荣七号
片  名 The Glorious Seven
年  代 2019
产  地 美国
类  别 动作
语  言 英语
上映日期 2019-03-12(美国)
IMDb评分  2.8/10 from 265 users
IMDb链接  https://www.imdb.com/title/tt3917254
豆瓣评分 3.2/10 from 206 users
豆瓣链接 https://movie.douban.com/subject/30489070/
片  长 93分钟
导  演 哈拉尔·富兰克林 Harald Franklin
主  演 Jerry Kwarteng
       Fernando Carrera
       Maurice Nash


标  签 烂片 | 动作 | 美国 | 2019 | 美国电影 | 犯罪 | 烂名 | 电影

简  介  

  阴险的富豪安东尼·莱文雇佣了前军官大卫·盖拉,去营救被游击队首领哈维尔·马丁内斯绑架的他的妻子瓦伦蒂娜。
  1. Video
  2. ID                                       : 1
  3. Format                                   : AVC
  4. Format/Info                              : Advanced Video Codec
  5. Format profile                           : High@L4
  6. Format settings                          : CABAC / 4 Ref Frames
  7. Format settings, CABAC                   : Yes
  8. Format settings, Reference frames        : 4 frames
  9. Codec ID                                 : V_MPEG4/ISO/AVC
  10. Duration                                 : 1 h 34 min
  11. Bit rate mode                            : Variable
  12. Bit rate                                 : 25.0 Mb/s
  13. Maximum bit rate                         : 35.0 Mb/s
  14. Width                                    : 1 920 pixels
  15. Height                                   : 1 080 pixels
  16. Display aspect ratio                     : 16:9
  17. Frame rate mode                          : Constant
  18. Frame rate                               : 23.976 (24000/1001) FPS
  19. Standard                                 : Component
  20. Color space                              : YUV
  21. Chroma subsampling                       : 4:2:0
  22. Bit depth                                : 8 bits
  23. Scan type                                : Progressive
  24. Bits/(Pixel*Frame)                       : 0.503
  25. Stream size                              : 16.4 GiB (93%)
  26. Title                                    : The.Glorious.Seven.2019.1080p.BluRay.REMUX.AVC.DTS-HD.MA.5.1-FGT
  27. Writing library                          : x264 core 142
  28. Encoding settings                        : cabac=1 / ref=4 / deblock=1:0:0 / analyse=0x3:0x133 / me=umh / subme=9 / psy=1 / psy_rd=1.00:0.00 / mixed_ref=1 / me_range=16 / chroma_me=1 / trellis=2 / 8x8dct=1 / cqm=2 / deadzone=21,11 / fast_pskip=1 / chroma_qp_offset=-4 / threads=24 / lookahead_threads=2 / sliced_threads=0 / slices=4 / nr=0 / decimate=1 / interlaced=0 / bluray_compat=1 / stitchable=1 / constrained_intra=0 / bframes=3 / b_pyramid=0 / b_adapt=2 / b_bias=0 / direct=3 / weightb=1 / open_gop=1 / weightp=1 / keyint=24 / keyint_min=1 / scenecut=40 / intra_refresh=0 / rc_lookahead=24 / rc=2pass / mbtree=1 / bitrate=25000 / ratetol=1.0 / qcomp=0.60 / qpmin=5 / qpmax=69 / qpstep=4 / cplxblur=20.0 / qblur=0.5 / vbv_maxrate=35000 / vbv_bufsize=30000 / nal_hrd=vbr / filler=0 / ip_ratio=1.40 / aq=1:1.00
  29. Language                                 : English
  30. Default                                  : No
  31. Forced                                   : No
  32. Color range                              : Limited
  33. Color primaries                          : BT.709
  34. Transfer characteristics                 : BT.709
  35. Matrix coefficients                      : BT.709

  36. Audio
  37. ID                                       : 2
  38. Format                                   : DTS XLL
  39. Format/Info                              : Digital Theater Systems
  40. Commercial name                          : DTS-HD Master Audio
  41. Codec ID                                 : A_DTS
  42. Duration                                 : 1 h 34 min
  43. Bit rate mode                            : Variable
  44. Bit rate                                 : 1 865 kb/s
  45. Channel(s)                               : 6 channels
  46. Channel layout                           : C L R Ls Rs LFE
  47. Sampling rate                            : 48.0 kHz
  48. Frame rate                               : 93.750 FPS (512 SPF)
  49. Bit depth                                : 16 bits
  50. Compression mode                         : Lossless
  51. Stream size                              : 1.23 GiB (7%)
  52. Title                                    : The.Glorious.Seven.2019.1080p.BluRay.REMUX.AVC.DTS-HD.MA.5.1-FGT
  53. Language                                 : English
  54. Default                                  : Yes
  55. Forced                                   : No

  56. Text
  57. ID                                       : 3
  58. Format                                   : PGS
  59. Muxing mode                              : zlib
  60. Codec ID                                 : S_HDMV/PGS
  61. Codec ID/Info                            : Picture based subtitle format used on BDs/HD-DVDs
  62. Duration                                 : 1 h 22 min
  63. Bit rate                                 : 1 574 b/s
  64. Count of elements                        : 181
  65. Stream size                              : 948 KiB (0%)
  66. Title                                    : English-PGS
  67. Language                                 : English
  68. Default                                  : Yes
  69. Forced                                   : No

  70. Menu
  71. 00:00:00.000                             : en:Chapter 01
  72. 00:12:31.292                             : en:Chapter 02
  73. 00:25:42.749                             : en:Chapter 03
  74. 00:33:34.012                             : en:Chapter 04
  75. 00:42:01.894                             : en:Chapter 05
  76. 00:55:29.326                             : en:Chapter 06
  77. 01:07:00.516                             : en:Chapter 07
  78. 01:13:01.293                             : en:Chapter 08
  79. 01:20:29.366                             : en:Chapter 09
  80. 01:29:02.962                             : en:Chapter 10
复制代码

170803nmkzkzss8t9sr9sj.png 敢死七镖客/光荣七号 The.Glorious.Seven.2019.1080p.BluRay.REMUX.AVC.DTS-HD.MA.5.1-FGT 17.66GB-3.png 敢死七镖客/光荣七号 The.Glorious.Seven.2019.1080p.BluRay.REMUX.AVC.DTS-HD.MA.5.1-FGT 17.66GB-4.png






回复

使用道具 举报

发表于 2020-1-14 17:18:01 | 显示全部楼层
楼主发贴辛苦了,谢谢楼主分享!我觉得蓝光电影网是注册对了!:P:P
回复 支持 反对

使用道具 举报

发表于 2020-1-14 17:21:39 | 显示全部楼层
感恩楼主无私的分享与奉献 !谢谢
回复 支持 反对

使用道具 举报

 成长值: 3265

发表于 2020-1-14 18:43:55 | 显示全部楼层
太牛了
回复

使用道具 举报

发表于 2020-1-15 01:11:55 | 显示全部楼层

感恩楼主无私的分享与奉献 !谢谢
回复 支持 反对

使用道具 举报

发表于 2020-1-15 01:17:50 | 显示全部楼层

感恩楼主无私的分享与奉献 !谢谢
回复 支持 反对

使用道具 举报

 成长值: 3985

发表于 2020-1-15 09:34:55 | 显示全部楼层
谢谢楼主无私分享。
回复 支持 反对

使用道具 举报

发表于 2020-1-15 10:04:02 | 显示全部楼层

谢谢楼主无私分享。
回复 支持 反对

使用道具 举报

发表于 2020-1-15 13:37:07 | 显示全部楼层
谢谢楼主无私分享。
回复 支持 反对

使用道具 举报

 成长值: 550

发表于 2020-1-15 14:43:06 | 显示全部楼层
楼主发贴辛苦了,谢谢楼主分享!我觉得蓝光电影网是注册对了!
回复 支持 反对

使用道具 举报

懒得打字嘛,点击右侧快捷回复 【右侧内容,后台自定义】
您需要登录后才可以回帖 登录 | 立即加入

本版积分规则

现在加入蓝光电影网,注册一个账号
上个主题 下个主题 快速回复 收藏帖子 返回列表 客服中心 搜索

手机版|小黑屋| 蓝光电影网 |网站地图 

Copyright © 2015-2019 Comsenz Inc.  Template by 蓝光电影论坛 All Rights Reserved.

Powered by 蓝光电影网 X3.4

特别声明:本站所有资源均由网上收集而来,版权归原影音公司所有,如果侵犯了你的权益,请通知我们,我们会及时删除侵权内容.

快速回复 返回顶部 返回列表