找回密码

蓝光电影网

查看: 211|回复: 4

[剧情] 痛苦与荣耀 Pain.and.Glory.2019.SPANISH.1080p.BluRay.x264.DTS-HD.MA.5.1-MT 14.37GB

[复制链接]

 成长值: 24205

发表于 2020-1-14 16:35:48 | 显示全部楼层 |阅读模式
痛苦与荣耀 Pain.and.Glory.2019.SPANISH.1080p.BluRay.x264.DTS-HD.MA.5.1-MT 14.37GB-1.png

译  名 痛苦与荣耀 / Pain & Glory / 万千痛爱在一身(港)
片  名 Dolor y gloria
年  代 2019
产  地 西班牙 / 法国
类  别 剧情 / 同性
语  言 西班牙语
上映日期 2019-03-13(马德里首映) / 2019-03-22(西班牙) / 2019-05-17(戛纳电影节)
IMDb评分  7.7/10 from 24128 users
IMDb链接  https://www.imdb.com/title/tt8291806
豆瓣评分 8.6/10 from 38732 users
豆瓣链接 https://movie.douban.com/subject/30198539/
片  长 113分钟
导  演 佩德罗·阿莫多瓦 Pedro Almodóvar
编  剧 佩德罗·阿莫多瓦 Pedro Almodóvar
主  演 安东尼奥·班德拉斯 Antonio Banderas
       阿谢尔·埃特塞安迪亚 Asier Etxeandia
       莱昂纳多·斯巴拉格利亚 Leonardo Sbaraglia
       诺拉·纳瓦斯 Nora Navas
       胡丽叶塔·塞拉诺 Julieta Serrano
       塞萨尔·文森特 César Vicente
       阿瑟·弗洛雷斯 Asier Flores
       佩内洛普·克鲁兹 Penélope Cruz
       塞西莉亚·罗特 Cecilia Roth
       苏西·桑切斯 Susi Sánchez
       劳尔·阿雷瓦洛 Raúl Arévalo
       佩德罗·卡萨布兰科 Pedro Casablanc
       朱利安·洛佩兹 Julián López
       伊娃·马丁 Eva Martín
       马里索尔·穆里尔 Marisol Muriel
       阿古斯丁·阿莫多瓦 Agustín Almodóvar
       沃伦·比蒂 Warren Beatty
       埃丝特·加西亚 Esther García
       米娜 Mina
       玛丽莲·梦露 Marilyn Monroe
       娜塔莉·伍德 Natalie Wood


标  签 西班牙 | 同性 | 2019 | 剧情 | 文艺 | 人生 | 传记 | 戛纳

简  介  

  佩德罗·阿莫多瓦、安东尼奥·班德拉斯、佩内洛普·克鲁兹将合作新片《痛苦与荣耀》(Dolor y Gloria),7月上半月开拍。和阿莫多瓦上部影片《胡丽叶塔》相反,影片主角将是两名男性,由班德拉斯和阿谢尔·埃特塞安迪亚扮演,克鲁兹和胡丽叶塔·塞拉饰女配,讲述一个处于晚年的电影导演的生活故事,包含初恋、第二次恋爱、母亲、死亡、与他合作过的一些演员,时间跨越60、80年代和现在,一种不适应的空虚感导致他现在无法拍电影。

获奖情况  

  第72届戛纳电影节(2019)
  主竞赛单元 金棕榈奖(提名) 佩德罗·阿莫多瓦
  主竞赛单元 最佳男演员 安东尼奥·班德拉斯
  同志金棕榈奖(提名) 佩德罗·阿莫多瓦

  第77届金球奖(2020)
  电影类 剧情片最佳男主角(提名) 安东尼奥·班德拉斯
  电影类 最佳外语片(提名)

  第73届英国电影学院奖(2020)
  电影奖 最佳非英语片(提名)

  第32届欧洲电影奖(2019)
  观众选择奖(提名)
  最佳影片(提名)
  最佳导演(提名) 佩德罗·阿莫多瓦
  最佳男主角 安东尼奥·班德拉斯
  最佳编剧(提名) 佩德罗·阿莫多瓦
  最佳美术设计

  第34届西班牙戈雅奖(2020)
  最佳影片(提名)
  最佳导演(提名) 佩德罗·阿莫多瓦
  最佳男主角(提名) 安东尼奥·班德拉斯
  最佳女主角(提名) 佩内洛普·克鲁兹
  最佳男配角(提名) 阿谢尔·埃特塞安迪亚 / 莱昂纳多·斯巴拉格利亚
  最佳女配角(提名) 胡丽叶塔·塞拉诺
  最佳原创剧本(提名) 佩德罗·阿莫多瓦
  最佳摄影(提名)
  最佳剪辑(提名)
  最佳艺术指导(提名)
  最佳制作人(提名)
  最佳音效(提名)
  最佳服装设计(提名)
  最佳化妆与发型(提名)
  最佳原创音乐(提名)

  第85届纽约影评人协会奖(2019)
  最佳男主角 安东尼奥·班德拉斯

  第91届美国国家评论协会奖(2019)
  五佳外语片

  第25届美国评论家选择电影奖(2020)
  最佳男主角(提名) 安东尼奥·班德拉斯
  最佳外语片(提名)

  第24届金卫星奖(2020)
  电影部门 最佳导演(提名) 佩德罗·阿莫多瓦
  电影部门 剧情片最佳男主角(提名) 安东尼奥·班德拉斯
  电影部门 最佳女配角(提名) 佩内洛普·克鲁兹
  电影部门 最佳外语片(提名)
  电影部门 最佳原创剧本(提名) 佩德罗·阿莫多瓦

  第23届好莱坞电影奖(2019)
  年度男主角 安东尼奥·班德拉斯

  第54届美国国家影评人协会奖(2020)
  最佳男主角 安东尼奥·班德拉斯

  第40届伦敦影评人协会奖(2020)
  年度电影(提名)
  年度外语片(提名)
  年度导演(提名) 佩德罗·阿莫多瓦
  年度编剧(提名) 佩德罗·阿莫多瓦
  年度男主角(提名) 安东尼奥·班德拉斯

  第45届洛杉矶影评人协会奖(2019)
  最佳男主角 安东尼奥·班德拉斯
  最佳外语片

  第32届芝加哥影评人协会奖(2019)
  最佳男主角(提名) 安东尼奥·班德拉斯
  最佳外语片(提名)

  第4届亚特兰大影评人协会奖(2019)
  十佳影片

  第23届美国在线影评人协会奖(2020)
  最佳男主角(提名) 安东尼奥·班德拉斯
  最佳非英语片(提名)

  第6届豆瓣电影年度榜单(2019)
  年度冷门佳片(提名)
  年度LGBT电影(提名)
  1. Video
  2. ID                                       : 1
  3. Format                                   : AVC
  4. Format/Info                              : Advanced Video Codec
  5. Format profile                           : High@L4
  6. Format settings                          : CABAC / 4 Ref Frames
  7. Format settings, CABAC                   : Yes
  8. Format settings, Reference frames        : 4 frames
  9. Codec ID                                 : V_MPEG4/ISO/AVC
  10. Duration                                 : 1 h 53 min
  11. Bit rate                                 : 16.2 Mb/s
  12. Width                                    : 1 920 pixels
  13. Height                                   : 1 038 pixels
  14. Display aspect ratio                     : 1.85:1
  15. Frame rate mode                          : Constant
  16. Frame rate                               : 23.976 (24000/1001) FPS
  17. Color space                              : YUV
  18. Chroma subsampling                       : 4:2:0
  19. Bit depth                                : 8 bits
  20. Scan type                                : Progressive
  21. Bits/(Pixel*Frame)                       : 0.339
  22. Stream size                              : 12.9 GiB (89%)
  23. Language                                 : Spanish
  24. Default                                  : Yes
  25. Forced                                   : No

  26. Audio
  27. ID                                       : 2
  28. Format                                   : DTS XLL
  29. Format/Info                              : Digital Theater Systems
  30. Commercial name                          : DTS-HD Master Audio
  31. Codec ID                                 : A_DTS
  32. Duration                                 : 1 h 53 min
  33. Bit rate mode                            : Variable
  34. Bit rate                                 : 1 902 kb/s
  35. Channel(s)                               : 6 channels
  36. Channel layout                           : C L R Ls Rs LFE
  37. Sampling rate                            : 48.0 kHz
  38. Frame rate                               : 93.750 FPS (512 SPF)
  39. Bit depth                                : 24 bits
  40. Compression mode                         : Lossless
  41. Stream size                              : 1.51 GiB (10%)
  42. Language                                 : Spanish
  43. Default                                  : Yes
  44. Forced                                   : No

  45. Text
  46. ID                                       : 3
  47. Format                                   : UTF-8
  48. Codec ID                                 : S_TEXT/UTF8
  49. Codec ID/Info                            : UTF-8 Plain Text
  50. Duration                                 : 1 h 46 min
  51. Bit rate                                 : 63 b/s
  52. Count of elements                        : 1412
  53. Stream size                              : 49.5 KiB (0%)
  54. Language                                 : English
  55. Default                                  : Yes
  56. Forced                                   : No
复制代码

痛苦与荣耀 Pain.and.Glory.2019.SPANISH.1080p.BluRay.x264.DTS-HD.MA.5.1-MT 14.37GB-2.png 痛苦与荣耀 Pain.and.Glory.2019.SPANISH.1080p.BluRay.x264.DTS-HD.MA.5.1-MT 14.37GB-3.png 痛苦与荣耀 Pain.and.Glory.2019.SPANISH.1080p.BluRay.x264.DTS-HD.MA.5.1-MT 14.37GB-4.png






回复

使用道具 举报

发表于 2020-1-14 17:19:46 | 显示全部楼层

楼主,大恩不言谢了!蓝光电影网是最棒的!:loveliness::loveliness::loveliness::loveliness:
回复 支持 反对

使用道具 举报

发表于 2020-1-14 19:59:18 | 显示全部楼层
大恩不言谢了!蓝光电影网是最棒的!:lol
回复 支持 反对

使用道具 举报

发表于 2020-1-15 02:27:01 | 显示全部楼层
评分好高!谢谢分享!
回复 支持 反对

使用道具 举报

发表于 7 天前 | 显示全部楼层
楼主发贴辛苦了,谢谢楼主分享!我觉得蓝光电影网是注册对了!
回复 支持 反对

使用道具 举报

懒得打字嘛,点击右侧快捷回复 【右侧内容,后台自定义】
您需要登录后才可以回帖 登录 | 立即加入

本版积分规则

现在加入蓝光电影网,注册一个账号
上个主题 下个主题 快速回复 收藏帖子 返回列表 客服中心 搜索

手机版|小黑屋| 蓝光电影网 |网站地图 

Copyright © 2015-2019 Comsenz Inc.  Template by 蓝光电影论坛 All Rights Reserved.

Powered by 蓝光电影网 X3.4

特别声明:本站所有资源均由网上收集而来,版权归原影音公司所有,如果侵犯了你的权益,请通知我们,我们会及时删除侵权内容.

快速回复 返回顶部 返回列表