找回密码

蓝光电影网

查看: 939|回复: 32

[10bit.HDR] 奇幻森林/与森林共舞 The.Jungle.Book.2016.2160p.UHD.BluRay.X265.10bit.HDR.TrueHD.7.1.Atmos-AAAUHD 18.08GB

[复制链接]

 成长值: 24205

发表于 2020-1-10 23:02:56 | 显示全部楼层 |阅读模式
奇幻森林/与森林共舞 The.Jungle.Book.2016.2160p.UHD.BluRay.X265.10bit.HDR.TrueHD.7.1.Atmos-AAAUHD 18.08GB-1.png

译  名 奇幻森林 / 与森林共舞(台) / 丛林之书 / 森林王子
片  名 The Jungle Book
年  代 2016
产  地 美国
类  别 剧情 / 奇幻 / 冒险
语  言 英语
上映日期 2016-04-15(美国/中国大陆)
IMDb评分  7.4/10 from 247712 users
IMDb链接  https://www.imdb.com/title/tt3040964
豆瓣评分 7.8/10 from 204665 users
豆瓣链接 https://movie.douban.com/subject/25777636/
片  长 106分钟
导  演 乔恩·费儒 Jon Favreau
编  剧 贾斯丁·马科斯 Justin Marks / 拉迪亚德·吉普林 Rudyard Kipling
主  演 尼尔·塞西 Neel Sethi
       比尔·默瑞 Bill Murray
       本·金斯利 Ben Kingsley
       伊德里斯·艾尔巴 Idris Elba
       露皮塔·尼永奥 Lupita Nyong'o
       斯嘉丽·约翰逊 Scarlett Johansson
       吉安卡罗·埃斯波西托 Giancarlo Esposito
       克里斯托弗·沃肯 Christopher Walken
       恩杰伊·安东尼 Emjay Anthony
       盖瑞·山德林 Garry Shandling
       莎拉·阿林顿 Sara Arrington
       瑞提什·拉詹 Ritesh Rajan


标  签 奇幻 | 迪士尼 | 美国 | 动画 | 冒险 | 动物 | Disney | 2016

简  介  

  茂密的原始森林中,生活着人类小孩毛克利(尼尔·塞西 Neel Sethi 饰)。因某种原因他很小就成为了孤儿,黑豹巴希拉(本·金斯利 Ben Kingsley 配音)最先找到了他,并将毛克利托付给狼族的首领阿克拉。从此以后,毛克利以狼的身份在森林里成长起来,和他的兄弟姐妹们学习捕猎和求生技巧。然而并非所有动物都接受毛克利的存在,特别是曾被人类伤害的老虎谢利·可汗(伊德里斯·艾尔巴 Idris Elba 配音),更将男孩视为眼中钉肉中刺。谢利·可汗向狼族发出威胁,众狼们不得不为族群的命运做出考量。毛克利不希望“家人”为难,他选择离开狼群,而唯一陪伴他的巴希拉则希望带着男孩回归人类世界。
  即便如此,谢利·可汗也绝不肯善罢甘休,他对男孩展开了无休止的追杀……

获奖情况  

  第89届奥斯卡金像奖(2017)
  最佳视觉效果 Andrew R. Jones / 丹·赖蒙 / 罗伯特·莱加托 / 亚当·瓦德兹

  第70届英国电影学院奖(2017)
  电影奖 最佳特殊视觉效果 Andrew R. Jones / 丹·赖蒙 / 罗伯特·莱加托 / 亚当·瓦德兹

  第44届动画安妮奖(2017)
  最佳真人电影动画角色

  第67届美国剪辑工会奖(2017)
  音乐/喜剧片最佳剪辑(提名)

  第15届美国视觉效果协会奖(2017)
  最佳特效电影视觉效果
  最佳真人电影CG动画角色
  最佳电影虚拟摄影
  最佳真人电影模拟动画效果
  最佳电影视觉效果合成

  第22届美国评论家选择电影奖(2017)
  最佳视觉效果

  第21届金卫星奖(2017)
  电影部门 最佳动画片(提名)
  电影部门 最佳改编剧本(提名) 贾斯丁·马科斯
  电影部门 最佳原创配乐(提名) 约翰·戴布尼
  电影部门 最佳摄影 比尔·波普
  电影部门 最佳视觉效果 Andrew R. Jones / 丹·赖蒙 / 罗伯特·莱加托 / 亚当·瓦德兹
  电影部门 最佳音效(提名) Frank E. Eulner / Lora Hirschberg / 克里斯托弗·博伊斯 / 朗·贾金斯
  电影部门 最佳美术指导(提名) 克里斯托弗·格拉斯

  第20届好莱坞电影奖(2016)
  年度音效
  最佳卖座片

  第3届豆瓣电影年度榜单(2016)
  4月最受关注电影

  1. Video
  2. ID                                       : 1
  3. Format                                   : HEVC
  4. Format/Info                              : High Efficiency Video Coding
  5. Format profile                           : Main 10@L5.1@High
  6. HDR format                               : SMPTE ST 2086, HDR10 compatible
  7. Codec ID                                 : V_MPEGH/ISO/HEVC
  8. Duration                                 : 1 h 45 min
  9. Bit rate                                 : 18.1 Mb/s
  10. Width                                    : 3 840 pixels
  11. Height                                   : 2 076 pixels
  12. Display aspect ratio                     : 1.85:1
  13. Frame rate mode                          : Constant
  14. Frame rate                               : 23.976 (24000/1001) FPS
  15. Color space                              : YUV
  16. Chroma subsampling                       : 4:2:0 (Type 2)
  17. Bit depth                                : 10 bits
  18. Bits/(Pixel*Frame)                       : 0.095
  19. Stream size                              : 13.4 GiB (75%)
  20. Title                                    : The.Jungle.Book.2016.2160p.UHD.BluRay.x265-AAAUHD
  21. Writing library                          : x265 3.2+29-c5ff72937e9c:[Windows][GCC 9.2.1][64 bit] 10bit
  22. Encoding settings                        : cpuid=1111039 / frame-threads=6 / numa-pools=32 / wpp / no-pmode / no-pme / no-psnr / no-ssim / log-level=2 / input-csp=1 / input-res=3840x2076 / interlace=0 / total-frames=152351 / level-idc=51 / high-tier=1 / uhd-bd=0 / ref=4 / no-allow-non-conformance / repeat-headers / annexb / aud / hrd / info / hash=0 / no-temporal-layers / no-open-gop / min-keyint=1 / keyint=24 / gop-lookahead=0 / bframes=4 / b-adapt=2 / b-pyramid / bframe-bias=0 / rc-lookahead=25 / lookahead-slices=4 / scenecut=40 / hist-scenecut=0 / radl=0 / no-splice / no-intra-refresh / ctu=64 / min-cu-size=8 / rect / no-amp / max-tu-size=32 / tu-inter-depth=1 / tu-intra-depth=1 / limit-tu=0 / rdoq-level=2 / dynamic-rd=0.00 / no-ssim-rd / signhide / no-tskip / nr-intra=0 / nr-inter=0 / no-constrained-intra / no-strong-intra-smoothing / max-merge=3 / limit-refs=3 / limit-modes / me=3 / subme=3 / merange=57 / temporal-mvp / no-frame-dup / no-hme / weightp / no-weightb / no-analyze-src-pics / deblock=-3:-3 / no-sao / no-sao-non-deblock / rd=4 / selective-sao=0 / no-early-skip / rskip / no-fast-intra / no-tskip-fast / no-cu-lossless / no-b-intra / no-splitrd-skip / rdpenalty=0 / psy-rd=2.00 / psy-rdoq=1.00 / no-rd-refine / no-lossless / cbqpoffs=0 / crqpoffs=0 / rc=crf / crf=17.0 / qcomp=0.60 / qpstep=4 / stats-write=0 / stats-read=0 / vbv-maxrate=160000 / vbv-bufsize=160000 / vbv-init=0.9 / crf-max=0.0 / crf-min=0.0 / ipratio=1.40 / pbratio=1.30 / aq-mode=2 / aq-strength=1.00 / cutree / zone-count=0 / no-strict-cbr / qg-size=32 / no-rc-grain / qpmax=69 / qpmin=0 / no-const-vbv / sar=1 / overscan=0 / videoformat=5 / range=0 / colorprim=9 / transfer=16 / colormatrix=9 / chromaloc=1 / chromaloc-top=2 / chromaloc-bottom=2 / display-window=0 / master-display=G(13250,34500)B(7500,3000)R(34000,16000)WP(15635,16450)L(40000000,10) / cll=998,236 / min-luma=0 / max-luma=1023 / log2-max-poc-lsb=8 / vui-timing-info / vui-hrd-info / slices=1 / no-opt-qp-pps / no-opt-ref-list-length-pps / no-multi-pass-opt-rps / scenecut-bias=0.05 / hist-threshold=0.01 / no-opt-cu-delta-qp / no-aq-motion / hdr10 / hdr10-opt / no-dhdr10-opt / no-idr-recovery-sei / analysis-reuse-level=5 / scale-factor=0 / refine-intra=0 / refine-inter=0 / refine-mv=1 / refine-ctu-distortion=0 / no-limit-sao / ctu-info=0 / no-lowpass-dct / refine-analysis-type=0 / copy-pic=1 / max-ausize-factor=1.0 / no-dynamic-refine / no-single-sei / no-hevc-aq / no-svt / no-field / qp-adaptation-range=1.00 / no-scenecut-aware-qp
  23. Default                                  : Yes
  24. Forced                                   : No
  25. Color range                              : Limited
  26. Color primaries                          : BT.2020
  27. Transfer characteristics                 : PQ
  28. Matrix coefficients                      : BT.2020 non-constant
  29. Mastering display color primaries        : Display P3
  30. Mastering display luminance              : min: 0.0010 cd/m2, max: 4000 cd/m2
  31. Maximum Content Light Level              : 998 cd/m2
  32. Maximum Frame-Average Light Level        : 236 cd/m2

  33. Audio #1
  34. ID                                       : 2
  35. Format                                   : MLP FBA 16-ch
  36. Format/Info                              : Meridian Lossless Packing FBA with 16-channel presentation
  37. Commercial name                          : Dolby TrueHD with Dolby Atmos
  38. Codec ID                                 : A_TRUEHD
  39. Duration                                 : 1 h 45 min
  40. Bit rate mode                            : Variable
  41. Bit rate                                 : 5 185 kb/s
  42. Maximum bit rate                         : 7 926 kb/s
  43. Channel(s)                               : 8 channels
  44. Channel layout                           : L R C LFE Ls Rs Lb Rb
  45. Sampling rate                            : 48.0 kHz
  46. Frame rate                               : 1 200.000 FPS (40 SPF)
  47. Compression mode                         : Lossless
  48. Stream size                              : 3.84 GiB (22%)
  49. Title                                    : English Dolby TrueHD with Dolby Atmos (TrueHD)
  50. Language                                 : English
  51. Default                                  : Yes
  52. Forced                                   : No
  53. Number of dynamic objects                : 13
  54. Bed channel count                        : 1 channel
  55. Bed channel configuration                : LFE

  56. Audio #2
  57. ID                                       : 3
  58. Format                                   : AC-3
  59. Format/Info                              : Audio Coding 3
  60. Commercial name                          : Dolby Digital
  61. Codec ID                                 : A_AC3
  62. Duration                                 : 1 h 45 min
  63. Bit rate mode                            : Constant
  64. Bit rate                                 : 640 kb/s
  65. Channel(s)                               : 6 channels
  66. Channel layout                           : L R C LFE Ls Rs
  67. Sampling rate                            : 48.0 kHz
  68. Frame rate                               : 31.250 FPS (1536 SPF)
  69. Bit depth                                : 16 bits
  70. Compression mode                         : Lossy
  71. Stream size                              : 485 MiB (3%)
  72. Title                                    : English Dolby Digital (AC3)
  73. Language                                 : English
  74. Service kind                             : Complete Main
  75. Default                                  : No
  76. Forced                                   : No

  77. Text #1
  78. ID                                       : 4
  79. Format                                   : UTF-8
  80. Codec ID                                 : S_TEXT/UTF8
  81. Codec ID/Info                            : UTF-8 Plain Text
  82. Duration                                 : 1 h 44 min
  83. Bit rate                                 : 47 b/s
  84. Count of elements                        : 1402
  85. Stream size                              : 36.5 KiB (0%)
  86. Title                                    : English SDH
  87. Language                                 : English
  88. Default                                  : No
  89. Forced                                   : No

  90. Text #2
  91. ID                                       : 5
  92. Format                                   : PGS
  93. Codec ID                                 : S_HDMV/PGS
  94. Codec ID/Info                            : Picture based subtitle format used on BDs/HD-DVDs
  95. Duration                                 : 1 h 44 min
  96. Bit rate                                 : 32.4 kb/s
  97. Count of elements                        : 2822
  98. Stream size                              : 24.2 MiB (0%)
  99. Title                                    : English PGS
  100. Language                                 : English
  101. Default                                  : No
  102. Forced                                   : No

  103. Text #3
  104. ID                                       : 6
  105. Format                                   : PGS
  106. Codec ID                                 : S_HDMV/PGS
  107. Codec ID/Info                            : Picture based subtitle format used on BDs/HD-DVDs
  108. Duration                                 : 1 h 44 min
  109. Bit rate                                 : 32.4 kb/s
  110. Count of elements                        : 2822
  111. Stream size                              : 24.2 MiB (0%)
  112. Title                                    : English SDH PGS
  113. Language                                 : English
  114. Default                                  : No
  115. Forced                                   : No

  116. Menu
  117. 00:00:00.000                             : :Chapter 01
  118. 00:00:48.215                             : :Chapter 02
  119. 00:05:15.315                             : :Chapter 03
  120. 00:09:02.459                             : :Chapter 04
  121. 00:12:42.178                             : :Chapter 05
  122. 00:16:34.452                             : :Chapter 06
  123. 00:21:20.029                             : :Chapter 07
  124. 00:27:15.133                             : :Chapter 08
  125. 00:35:04.144                             : :Chapter 09
  126. 00:43:21.724                             : :Chapter 10
  127. 00:48:05.132                             : :Chapter 11
  128. 00:53:29.248                             : :Chapter 12
  129. 00:58:03.271                             : :Chapter 13
  130. 01:05:46.901                             : :Chapter 14
  131. 01:10:35.523                             : :Chapter 15
  132. 01:17:01.325                             : :Chapter 16
  133. 01:20:50.012                             : :Chapter 17
  134. 01:24:46.540                             : :Chapter 18
  135. 01:30:32.969                             : :Chapter 19
  136. 01:35:53.206                             : :Chapter 20
复制代码
214137k2ns7bp857g5ms2n.png 214138epyyx75zxl7xtcag.png 214138mix77ekxa5xzjwdx.png



回复

使用道具 举报

发表于 2020-1-11 07:35:40 | 显示全部楼层
楼主发贴辛苦了,谢谢楼主分享!我觉得蓝光电影网是注册对了!
回复 支持 反对

使用道具 举报

 成长值: 1670

发表于 2020-1-11 11:10:35 | 显示全部楼层
谢谢楼主分享!
回复 支持 反对

使用道具 举报

发表于 2020-1-11 11:56:17 | 显示全部楼层

楼主太厉害了!楼主,电影应该很好看我觉得蓝光电影网真是个好地方!
回复 支持 反对

使用道具 举报

发表于 2020-1-11 18:23:20 | 显示全部楼层

楼主太厉害了!楼主,电影应该很好看我觉得蓝光电影网真是个好地方!
回复 支持 反对

使用道具 举报

发表于 2020-1-11 18:59:10 | 显示全部楼层
辛苦啦、感谢
回复 支持 反对

使用道具 举报

 成长值: 1495

发表于 2020-1-12 00:14:24 | 显示全部楼层

这个帖子不回对不起自己!我想我是一天也不能离开蓝光电影网
回复 支持 反对

使用道具 举报

发表于 2020-1-12 01:00:02 | 显示全部楼层
辛苦啦、感谢
回复 支持 反对

使用道具 举报

 成长值: 1420

发表于 2020-1-12 20:11:34 | 显示全部楼层
楼主太厉害了!楼主,电影应该很好看我觉得蓝光电影网真是个好地方!

回复 支持 反对

使用道具 举报

发表于 2020-1-12 21:28:58 | 显示全部楼层

其实我一直觉得楼主的品味不错!呵呵!蓝光电影网太棒了!
回复 支持 反对

使用道具 举报

懒得打字嘛,点击右侧快捷回复 【右侧内容,后台自定义】
您需要登录后才可以回帖 登录 | 立即加入

本版积分规则

现在加入蓝光电影网,注册一个账号
上个主题 下个主题 快速回复 收藏帖子 返回列表 客服中心 搜索

手机版|小黑屋| 蓝光电影网 |网站地图 

Copyright © 2015-2019 Comsenz Inc.  Template by 蓝光电影论坛 All Rights Reserved.

Powered by 蓝光电影网 X3.4

特别声明:本站所有资源均由网上收集而来,版权归原影音公司所有,如果侵犯了你的权益,请通知我们,我们会及时删除侵权内容.

快速回复 返回顶部 返回列表