找回密码

蓝光电影网

查看: 335|回复: 7

[REMUX.HEVC] 丧尸乐园2 Zombieland.Double.Tap.2019.2160p.BluRay.REMUX.HEVC.DTS-X.7.1-FGT 49.24GB

[复制链接]

 成长值: 24205

发表于 2020-1-10 15:25:00 | 显示全部楼层 |阅读模式
丧尸乐园2 Zombieland.Double.Tap.2019.2160p.BluRay.REMUX.HEVC.DTS-X.7.1-FGT 49.24GB-1.png

译  名 丧尸乐园2 / Zombieland 2 / 丧尸乐园2:双击 / 丧尸乐园:连环尸杀(港) / 僵尸之地2 / 僵尸之地2:双击 / 尸乐园:脏比双拼(台)
片  名 Zombieland: Double Tap
年  代 2019
产  地 美国 / 加拿大
类  别 喜剧 / 动作 / 恐怖
语  言 英语
上映日期 2019-10-09(中国台湾) / 2019-10-18(美国)
IMDb评分  6.9/10 from 61783 users
IMDb链接  https://www.imdb.com/title/tt1560220
豆瓣评分 7.0/10 from 17907 users
豆瓣链接 https://movie.douban.com/subject/4185834/
片  长 99分钟
导  演 鲁本·弗雷斯彻 Ruben Fleischer
编  剧 戴夫·卡拉汉姆 Dave Callaham / 瑞特·里斯 Rhett Reese / 保罗·韦尼克 Paul Wernick
主  演 伍迪·哈里森 Woody Harrelson
       杰西·艾森伯格 Jesse Eisenberg
       艾玛·斯通 Emma Stone
       阿比盖尔·布雷斯林 Abigail Breslin
       佐伊·达奇 Zoey Deutch
       阿万·乔贾 Avan Jogia
       罗莎里奥·道森 Rosario Dawson
       卢克·威尔逊 Luke Wilson
       托马斯·米德蒂奇 Thomas Middleditch
       维多利亚·哈尔 Victoria Hall
       维克多·里维拉 Victor Rivera
       伊恩·格雷格 Ian Gregg
       德文·莫吉卡 Devin Mojica
       瑞秋·鲁特雷尔 Rachel Luttrell
       约翰·迪克森 John Dixon
       比尔·默瑞 Bill Murray
       阿尔·罗克 Al Roker
       莉莉·埃斯特凡 Lili Estefan
       塞尔吉奥·布里奥内斯 Sergio Briones
       蒂莫西·卡尔 Timothy Carr
       扎拉·麦克道威尔 Zara McDowell
       迪索·拉莫斯 Diezel Ramos


标  签 喜剧 | 丧尸 | 美国 | 搞笑 | 僵尸 | 2019 | 恐怖 | 动作

简  介  

  《僵尸之地》是鲁本·弗雷斯彻的导演处女作,上映后好评如潮——获得了烂番茄89%的惊人好评率,此片一举奠定了鲁本在好莱坞商业领域的地位。首映周末以2500万美元登顶冠军的《僵尸之地》,是受到几年前《僵尸肖恩》的启发进行创作的,影片讲述了一种致命病毒席卷了美国,只要被病毒感染,就会变成僵尸。最终,只有几个幸存者没有被感染病毒,决定逃离,获得生存的机会。两个性格迥异的男人凑到了一起,前者对待僵尸的进攻别有心得(制定了一大堆“规则”),后者则是个暴力崇尚者,企图杀光所有的僵尸。在他们逃亡的途中,邂逅了两个精明的女幸存者,他们四人决定一起分享对付僵尸的经验,获得逃生的机会。然而,在杀戮过程中,他们遭遇的危险超出了所有人的想象。按照好莱坞卖座片的类型规律,像《僵尸之地》这种投资仅2000多万美元,没有一线大牌主演的僵尸片,基本都是烂片集中营的当家老大,但此片的成功却来的非常迅猛。这全归功于导演的创意,影片结尾高潮处在游乐园大战僵尸一段,观赏性极强。
  《僵尸之地》的主演杰西·艾森伯格、伍迪·哈里森、艾玛·斯通、阿比盖尔·布莱斯林,目前已确定愿意回归剧组参加续集的拍摄,但剧本仍然在创作之中,预计10年上半年开机。
  电影《僵尸之地》(Zombieland)导演鲁本.费雷斯彻(Ruben Fleischer)近日在接受采访时透露《僵尸之地》续集有望2010年年底正式开拍。
  “我们正在与制片方接触,我们有一些点子它们也非常喜欢。我们肯定会以3D的形式拍摄这部续集。索尼现在已经有自己的3D部门了,我们将在周二(3月2日)参观索尼的3D部门。我知道所有原班人马都很激动回归续集,这将是1部拍摄过程十分精彩有趣的电影。剧本即将开始创作,我希望能在今年年底或者明年年初正式开拍《僵尸之地2》。”
  1. Video
  2. ID                                       : 1
  3. Format                                   : HEVC
  4. Format/Info                              : High Efficiency Video Coding
  5. Format profile                           : Main High@L4@High
  6. HDR format                               : SMPTE ST 2086, HDR10 compatible
  7. Codec ID                                 : V_MPEGH/ISO/HEVC
  8. Duration                                 : 1 h 39 min
  9. Bit rate                                 : 54.2 Mb/s
  10. Width                                    : 3 840 pixels
  11. Height                                   : 2 160 pixels
  12. Display aspect ratio                     : 16:9
  13. Frame rate mode                          : Constant
  14. Frame rate                               : 23.976 (24000/1001) FPS
  15. Color space                              : YUV
  16. Chroma subsampling                       : 4:2:0 (Type 2)
  17. Bit depth                                : 10 bits
  18. Bits/(Pixel*Frame)                       : 0.272
  19. Stream size                              : 37.5 GiB (76%)
  20. Title                                    : Zombieland.Double.Tap.2019.2160p.BluRay.REMUX.HEVC.DTS-X.7.1-FGT
  21. Language                                 : English
  22. Default                                  : No
  23. Forced                                   : No
  24. Color range                              : Limited
  25. Color primaries                          : BT.2020
  26. Transfer characteristics                 : PQ
  27. Matrix coefficients                      : BT.2020 non-constant
  28. Mastering display color primaries        : Display P3
  29. Mastering display luminance              : min: 0.0050 cd/m2, max: 4000 cd/m2
  30. Maximum Content Light Level              : 1001 cd/m2
  31. Maximum Frame-Average Light Level        : 387 cd/m2

  32. Audio #1
  33. ID                                       : 2
  34. Format                                   : DTS XLL
  35. Format/Info                              : Digital Theater Systems
  36. Commercial name                          : DTS-HD Master Audio
  37. Codec ID                                 : A_DTS
  38. Duration                                 : 1 h 39 min
  39. Bit rate mode                            : Variable
  40. Bit rate                                 : 5 292 kb/s
  41. Channel(s)                               : 8 channels
  42. Channel layout                           : C L R LFE Lb Rb Lss Rss
  43. Sampling rate                            : 48.0 kHz
  44. Frame rate                               : 93.750 FPS (512 SPF)
  45. Bit depth                                : 24 bits
  46. Compression mode                         : Lossless
  47. Stream size                              : 3.66 GiB (7%)
  48. Title                                    : Zombieland.Double.Tap.2019.2160p.BluRay.REMUX.HEVC.DTS-X.7.1-FGT
  49. Language                                 : English
  50. Default                                  : Yes
  51. Forced                                   : No

  52. Audio #2
  53. ID                                       : 3
  54. Format                                   : AC-3
  55. Format/Info                              : Audio Coding 3
  56. Commercial name                          : Dolby Digital
  57. Codec ID                                 : A_AC3
  58. Duration                                 : 1 h 39 min
  59. Bit rate mode                            : Constant
  60. Bit rate                                 : 640 kb/s
  61. Channel(s)                               : 6 channels
  62. Channel layout                           : L R C LFE Ls Rs
  63. Sampling rate                            : 48.0 kHz
  64. Frame rate                               : 31.250 FPS (1536 SPF)
  65. Bit depth                                : 16 bits
  66. Compression mode                         : Lossy
  67. Stream size                              : 453 MiB (1%)
  68. Title                                    : Zombieland.Double.Tap.2019.2160p.BluRay.REMUX.HEVC.DTS-X.7.1-FGT
  69. Language                                 : English
  70. Service kind                             : Complete Main
  71. Default                                  : No
  72. Forced                                   : No

  73. Audio #3
  74. ID                                       : 4
  75. Format                                   : AC-3
  76. Format/Info                              : Audio Coding 3
  77. Commercial name                          : Dolby Digital
  78. Codec ID                                 : A_AC3
  79. Duration                                 : 1 h 39 min
  80. Bit rate mode                            : Constant
  81. Bit rate                                 : 640 kb/s
  82. Channel(s)                               : 6 channels
  83. Channel layout                           : L R C LFE Ls Rs
  84. Sampling rate                            : 48.0 kHz
  85. Frame rate                               : 31.250 FPS (1536 SPF)
  86. Bit depth                                : 16 bits
  87. Compression mode                         : Lossy
  88. Stream size                              : 453 MiB (1%)
  89. Title                                    : Zombieland.Double.Tap.2019.2160p.BluRay.REMUX.HEVC.DTS-X.7.1-FGT
  90. Language                                 : English
  91. Service kind                             : Complete Main
  92. Default                                  : No
  93. Forced                                   : No

  94. Audio #4
  95. ID                                       : 5
  96. Format                                   : AC-3
  97. Format/Info                              : Audio Coding 3
  98. Commercial name                          : Dolby Digital
  99. Codec ID                                 : A_AC3
  100. Duration                                 : 1 h 39 min
  101. Bit rate mode                            : Constant
  102. Bit rate                                 : 640 kb/s
  103. Channel(s)                               : 6 channels
  104. Channel layout                           : L R C LFE Ls Rs
  105. Sampling rate                            : 48.0 kHz
  106. Frame rate                               : 31.250 FPS (1536 SPF)
  107. Bit depth                                : 16 bits
  108. Compression mode                         : Lossy
  109. Stream size                              : 453 MiB (1%)
  110. Title                                    : Zombieland.Double.Tap.2019.2160p.BluRay.REMUX.HEVC.DTS-X.7.1-FGT
  111. Language                                 : Czech
  112. Service kind                             : Complete Main
  113. Default                                  : No
  114. Forced                                   : No

  115. Audio #5
  116. ID                                       : 6
  117. Format                                   : AC-3
  118. Format/Info                              : Audio Coding 3
  119. Commercial name                          : Dolby Digital
  120. Codec ID                                 : A_AC3
  121. Duration                                 : 1 h 39 min
  122. Bit rate mode                            : Constant
  123. Bit rate                                 : 640 kb/s
  124. Channel(s)                               : 6 channels
  125. Channel layout                           : L R C LFE Ls Rs
  126. Sampling rate                            : 48.0 kHz
  127. Frame rate                               : 31.250 FPS (1536 SPF)
  128. Bit depth                                : 16 bits
  129. Compression mode                         : Lossy
  130. Stream size                              : 453 MiB (1%)
  131. Title                                    : Zombieland.Double.Tap.2019.2160p.BluRay.REMUX.HEVC.DTS-X.7.1-FGT
  132. Language                                 : French
  133. Service kind                             : Complete Main
  134. Default                                  : No
  135. Forced                                   : No

  136. Audio #6
  137. ID                                       : 7
  138. Format                                   : AC-3
  139. Format/Info                              : Audio Coding 3
  140. Commercial name                          : Dolby Digital
  141. Codec ID                                 : A_AC3
  142. Duration                                 : 1 h 39 min
  143. Bit rate mode                            : Constant
  144. Bit rate                                 : 640 kb/s
  145. Channel(s)                               : 6 channels
  146. Channel layout                           : L R C LFE Ls Rs
  147. Sampling rate                            : 48.0 kHz
  148. Frame rate                               : 31.250 FPS (1536 SPF)
  149. Bit depth                                : 16 bits
  150. Compression mode                         : Lossy
  151. Stream size                              : 453 MiB (1%)
  152. Title                                    : Zombieland.Double.Tap.2019.2160p.BluRay.REMUX.HEVC.DTS-X.7.1-FGT
  153. Language                                 : French
  154. Service kind                             : Complete Main
  155. Default                                  : No
  156. Forced                                   : No

  157. Audio #7
  158. ID                                       : 8
  159. Format                                   : AC-3
  160. Format/Info                              : Audio Coding 3
  161. Commercial name                          : Dolby Digital
  162. Codec ID                                 : A_AC3
  163. Duration                                 : 1 h 39 min
  164. Bit rate mode                            : Constant
  165. Bit rate                                 : 640 kb/s
  166. Channel(s)                               : 6 channels
  167. Channel layout                           : L R C LFE Ls Rs
  168. Sampling rate                            : 48.0 kHz
  169. Frame rate                               : 31.250 FPS (1536 SPF)
  170. Bit depth                                : 16 bits
  171. Compression mode                         : Lossy
  172. Stream size                              : 453 MiB (1%)
  173. Title                                    : Zombieland.Double.Tap.2019.2160p.BluRay.REMUX.HEVC.DTS-X.7.1-FGT
  174. Language                                 : Hungarian
  175. Service kind                             : Complete Main
  176. Default                                  : No
  177. Forced                                   : No

  178. Audio #8
  179. ID                                       : 9
  180. Format                                   : AC-3
  181. Format/Info                              : Audio Coding 3
  182. Commercial name                          : Dolby Digital
  183. Codec ID                                 : A_AC3
  184. Duration                                 : 1 h 39 min
  185. Bit rate mode                            : Constant
  186. Bit rate                                 : 640 kb/s
  187. Channel(s)                               : 6 channels
  188. Channel layout                           : L R C LFE Ls Rs
  189. Sampling rate                            : 48.0 kHz
  190. Frame rate                               : 31.250 FPS (1536 SPF)
  191. Bit depth                                : 16 bits
  192. Compression mode                         : Lossy
  193. Stream size                              : 453 MiB (1%)
  194. Title                                    : Zombieland.Double.Tap.2019.2160p.BluRay.REMUX.HEVC.DTS-X.7.1-FGT
  195. Language                                 : Polish
  196. Service kind                             : Complete Main
  197. Default                                  : No
  198. Forced                                   : No

  199. Audio #9
  200. ID                                       : 10
  201. Format                                   : DTS XLL
  202. Format/Info                              : Digital Theater Systems
  203. Commercial name                          : DTS-HD Master Audio
  204. Codec ID                                 : A_DTS
  205. Duration                                 : 1 h 39 min
  206. Bit rate mode                            : Variable
  207. Bit rate                                 : 2 263 kb/s
  208. Channel(s)                               : 6 channels
  209. Channel layout                           : C L R Ls Rs LFE
  210. Sampling rate                            : 48.0 kHz
  211. Frame rate                               : 93.750 FPS (512 SPF)
  212. Bit depth                                : 16 bits
  213. Compression mode                         : Lossless
  214. Stream size                              : 1.57 GiB (3%)
  215. Title                                    : Zombieland.Double.Tap.2019.2160p.BluRay.REMUX.HEVC.DTS-X.7.1-FGT
  216. Language                                 : Portuguese
  217. Default                                  : No
  218. Forced                                   : No

  219. Audio #10
  220. ID                                       : 11
  221. Format                                   : AC-3
  222. Format/Info                              : Audio Coding 3
  223. Commercial name                          : Dolby Digital
  224. Codec ID                                 : A_AC3
  225. Duration                                 : 1 h 39 min
  226. Bit rate mode                            : Constant
  227. Bit rate                                 : 448 kb/s
  228. Channel(s)                               : 6 channels
  229. Channel layout                           : L R C LFE Ls Rs
  230. Sampling rate                            : 48.0 kHz
  231. Frame rate                               : 31.250 FPS (1536 SPF)
  232. Bit depth                                : 16 bits
  233. Compression mode                         : Lossy
  234. Stream size                              : 317 MiB (1%)
  235. Title                                    : Zombieland.Double.Tap.2019.2160p.BluRay.REMUX.HEVC.DTS-X.7.1-FGT
  236. Language                                 : Portuguese
  237. Service kind                             : Complete Main
  238. Default                                  : No
  239. Forced                                   : No

  240. Audio #11
  241. ID                                       : 12
  242. Format                                   : DTS XLL
  243. Format/Info                              : Digital Theater Systems
  244. Commercial name                          : DTS-HD Master Audio
  245. Codec ID                                 : A_DTS
  246. Duration                                 : 1 h 39 min
  247. Bit rate mode                            : Variable
  248. Bit rate                                 : 2 265 kb/s
  249. Channel(s)                               : 6 channels
  250. Channel layout                           : C L R Ls Rs LFE
  251. Sampling rate                            : 48.0 kHz
  252. Frame rate                               : 93.750 FPS (512 SPF)
  253. Bit depth                                : 16 bits
  254. Compression mode                         : Lossless
  255. Stream size                              : 1.57 GiB (3%)
  256. Title                                    : Zombieland.Double.Tap.2019.2160p.BluRay.REMUX.HEVC.DTS-X.7.1-FGT
  257. Language                                 : Spanish
  258. Default                                  : No
  259. Forced                                   : No

  260. Audio #12
  261. ID                                       : 13
  262. Format                                   : AC-3
  263. Format/Info                              : Audio Coding 3
  264. Commercial name                          : Dolby Digital
  265. Codec ID                                 : A_AC3
  266. Duration                                 : 1 h 39 min
  267. Bit rate mode                            : Constant
  268. Bit rate                                 : 640 kb/s
  269. Channel(s)                               : 6 channels
  270. Channel layout                           : L R C LFE Ls Rs
  271. Sampling rate                            : 48.0 kHz
  272. Frame rate                               : 31.250 FPS (1536 SPF)
  273. Bit depth                                : 16 bits
  274. Compression mode                         : Lossy
  275. Stream size                              : 453 MiB (1%)
  276. Title                                    : Zombieland.Double.Tap.2019.2160p.BluRay.REMUX.HEVC.DTS-X.7.1-FGT
  277. Language                                 : Spanish
  278. Service kind                             : Complete Main
  279. Default                                  : No
  280. Forced                                   : No

  281. Audio #13
  282. ID                                       : 14
  283. Format                                   : AC-3
  284. Format/Info                              : Audio Coding 3
  285. Commercial name                          : Dolby Digital
  286. Codec ID                                 : A_AC3
  287. Duration                                 : 1 h 39 min
  288. Bit rate mode                            : Constant
  289. Bit rate                                 : 640 kb/s
  290. Channel(s)                               : 6 channels
  291. Channel layout                           : L R C LFE Ls Rs
  292. Sampling rate                            : 48.0 kHz
  293. Frame rate                               : 31.250 FPS (1536 SPF)
  294. Bit depth                                : 16 bits
  295. Compression mode                         : Lossy
  296. Stream size                              : 453 MiB (1%)
  297. Title                                    : Zombieland.Double.Tap.2019.2160p.BluRay.REMUX.HEVC.DTS-X.7.1-FGT
  298. Language                                 : Thai
  299. Service kind                             : Complete Main
  300. Default                                  : No
  301. Forced                                   : No

  302. Audio #14
  303. ID                                       : 15
  304. Format                                   : AC-3
  305. Format/Info                              : Audio Coding 3
  306. Commercial name                          : Dolby Digital
  307. Codec ID                                 : A_AC3
  308. Duration                                 : 1 h 39 min
  309. Bit rate mode                            : Constant
  310. Bit rate                                 : 192 kb/s
  311. Channel(s)                               : 2 channels
  312. Channel layout                           : L R
  313. Sampling rate                            : 48.0 kHz
  314. Frame rate                               : 31.250 FPS (1536 SPF)
  315. Bit depth                                : 16 bits
  316. Compression mode                         : Lossy
  317. Stream size                              : 136 MiB (0%)
  318. Title                                    : Zombieland.Double.Tap.2019.2160p.BluRay.REMUX.HEVC.DTS-X.7.1-FGT
  319. Language                                 : English
  320. Service kind                             : Complete Main
  321. Default                                  : No
  322. Forced                                   : No

  323. Text #1
  324. ID                                       : 16
  325. Format                                   : UTF-8
  326. Codec ID                                 : S_TEXT/UTF8
  327. Codec ID/Info                            : UTF-8 Plain Text
  328. Duration                                 : 1 h 38 min
  329. Bit rate                                 : 76 b/s
  330. Count of elements                        : 1414
  331. Stream size                              : 55.2 KiB (0%)
  332. Title                                    : English-SRT
  333. Language                                 : English
  334. Default                                  : Yes
  335. Forced                                   : No

  336. Text #2
  337. ID                                       : 17
  338. Format                                   : UTF-8
  339. Codec ID                                 : S_TEXT/UTF8
  340. Codec ID/Info                            : UTF-8 Plain Text
  341. Duration                                 : 1 h 38 min
  342. Bit rate                                 : 84 b/s
  343. Count of elements                        : 1599
  344. Stream size                              : 61.1 KiB (0%)
  345. Title                                    : English-SDH-SRT
  346. Language                                 : English
  347. Default                                  : No
  348. Forced                                   : No

  349. Text #3
  350. ID                                       : 18
  351. Format                                   : PGS
  352. Muxing mode                              : zlib
  353. Codec ID                                 : S_HDMV/PGS
  354. Codec ID/Info                            : Picture based subtitle format used on BDs/HD-DVDs
  355. Duration                                 : 1 h 38 min
  356. Bit rate                                 : 51.7 kb/s
  357. Count of elements                        : 3210
  358. Stream size                              : 36.4 MiB (0%)
  359. Title                                    : English-PGS
  360. Language                                 : English
  361. Default                                  : No
  362. Forced                                   : No

  363. Text #4
  364. ID                                       : 19
  365. Format                                   : PGS
  366. Muxing mode                              : zlib
  367. Codec ID                                 : S_HDMV/PGS
  368. Codec ID/Info                            : Picture based subtitle format used on BDs/HD-DVDs
  369. Duration                                 : 1 h 38 min
  370. Bit rate                                 : 46.4 kb/s
  371. Count of elements                        : 2844
  372. Stream size                              : 32.6 MiB (0%)
  373. Title                                    : English-SDH-PGS
  374. Language                                 : English
  375. Default                                  : No
  376. Forced                                   : No

  377. Text #5
  378. ID                                       : 20
  379. Format                                   : PGS
  380. Muxing mode                              : zlib
  381. Codec ID                                 : S_HDMV/PGS
  382. Codec ID/Info                            : Picture based subtitle format used on BDs/HD-DVDs
  383. Duration                                 : 28 min 6 s
  384. Bit rate                                 : 487 b/s
  385. Count of elements                        : 14
  386. Stream size                              : 100 KiB (0%)
  387. Title                                    : English-PGS
  388. Language                                 : English
  389. Default                                  : No
  390. Forced                                   : No

  391. Text #6
  392. ID                                       : 21
  393. Format                                   : PGS
  394. Muxing mode                              : zlib
  395. Codec ID                                 : S_HDMV/PGS
  396. Codec ID/Info                            : Picture based subtitle format used on BDs/HD-DVDs
  397. Duration                                 : 1 h 38 min
  398. Bit rate                                 : 51.8 kb/s
  399. Count of elements                        : 3210
  400. Stream size                              : 36.4 MiB (0%)
  401. Title                                    : English-SDH-PGS
  402. Language                                 : English
  403. Default                                  : No
  404. Forced                                   : No

  405. Text #7
  406. ID                                       : 22
  407. Format                                   : PGS
  408. Muxing mode                              : zlib
  409. Codec ID                                 : S_HDMV/PGS
  410. Codec ID/Info                            : Picture based subtitle format used on BDs/HD-DVDs
  411. Duration                                 : 1 h 38 min
  412. Bit rate                                 : 24.5 kb/s
  413. Count of elements                        : 3459
  414. Stream size                              : 17.2 MiB (0%)
  415. Title                                    : Arabic-PGS
  416. Language                                 : Arabic
  417. Default                                  : No
  418. Forced                                   : No

  419. Text #8
  420. ID                                       : 23
  421. Format                                   : PGS
  422. Muxing mode                              : zlib
  423. Codec ID                                 : S_HDMV/PGS
  424. Codec ID/Info                            : Picture based subtitle format used on BDs/HD-DVDs
  425. Duration                                 : 1 h 38 min
  426. Bit rate                                 : 33.8 kb/s
  427. Count of elements                        : 3485
  428. Stream size                              : 23.8 MiB (0%)
  429. Title                                    : Chinese-PGS
  430. Language                                 : Chinese
  431. Default                                  : No
  432. Forced                                   : No

  433. Text #9
  434. ID                                       : 24
  435. Format                                   : PGS
  436. Muxing mode                              : zlib
  437. Codec ID                                 : S_HDMV/PGS
  438. Codec ID/Info                            : Picture based subtitle format used on BDs/HD-DVDs
  439. Duration                                 : 1 h 38 min
  440. Bit rate                                 : 37.8 kb/s
  441. Count of elements                        : 3396
  442. Stream size                              : 26.6 MiB (0%)
  443. Title                                    : Chinese-PGS
  444. Language                                 : Chinese
  445. Default                                  : No
  446. Forced                                   : No

  447. Text #10
  448. ID                                       : 25
  449. Format                                   : PGS
  450. Muxing mode                              : zlib
  451. Codec ID                                 : S_HDMV/PGS
  452. Codec ID/Info                            : Picture based subtitle format used on BDs/HD-DVDs
  453. Duration                                 : 1 h 38 min
  454. Bit rate                                 : 34.3 kb/s
  455. Count of elements                        : 3492
  456. Stream size                              : 24.1 MiB (0%)
  457. Title                                    : Chinese-PGS
  458. Language                                 : Chinese
  459. Default                                  : No
  460. Forced                                   : No

  461. Text #11
  462. ID                                       : 26
  463. Format                                   : PGS
  464. Muxing mode                              : zlib
  465. Codec ID                                 : S_HDMV/PGS
  466. Codec ID/Info                            : Picture based subtitle format used on BDs/HD-DVDs
  467. Duration                                 : 1 h 38 min
  468. Bit rate                                 : 42.5 kb/s
  469. Count of elements                        : 3369
  470. Stream size                              : 29.9 MiB (0%)
  471. Title                                    : Czech-PGS
  472. Language                                 : Czech
  473. Default                                  : No
  474. Forced                                   : No

  475. Text #12
  476. ID                                       : 27
  477. Format                                   : PGS
  478. Muxing mode                              : zlib
  479. Codec ID                                 : S_HDMV/PGS
  480. Codec ID/Info                            : Picture based subtitle format used on BDs/HD-DVDs
  481. Duration                                 : 1 h 30 min
  482. Bit rate                                 : 946 b/s
  483. Count of elements                        : 70
  484. Stream size                              : 630 KiB (0%)
  485. Title                                    : Czech-FORCED-PGS
  486. Language                                 : Czech
  487. Default                                  : No
  488. Forced                                   : No

  489. Text #13
  490. ID                                       : 28
  491. Format                                   : PGS
  492. Muxing mode                              : zlib
  493. Codec ID                                 : S_HDMV/PGS
  494. Codec ID/Info                            : Picture based subtitle format used on BDs/HD-DVDs
  495. Duration                                 : 1 h 38 min
  496. Bit rate                                 : 37.7 kb/s
  497. Count of elements                        : 3233
  498. Stream size                              : 26.5 MiB (0%)
  499. Title                                    : French-PGS
  500. Language                                 : French
  501. Default                                  : No
  502. Forced                                   : No

  503. Text #14
  504. ID                                       : 29
  505. Format                                   : PGS
  506. Muxing mode                              : zlib
  507. Codec ID                                 : S_HDMV/PGS
  508. Codec ID/Info                            : Picture based subtitle format used on BDs/HD-DVDs
  509. Duration                                 : 1 h 38 min
  510. Bit rate                                 : 46.2 kb/s
  511. Count of elements                        : 2932
  512. Stream size                              : 32.5 MiB (0%)
  513. Title                                    : Greek-PGS
  514. Language                                 : Greek
  515. Default                                  : No
  516. Forced                                   : No

  517. Text #15
  518. ID                                       : 30
  519. Format                                   : PGS
  520. Muxing mode                              : zlib
  521. Codec ID                                 : S_HDMV/PGS
  522. Codec ID/Info                            : Picture based subtitle format used on BDs/HD-DVDs
  523. Duration                                 : 1 h 38 min
  524. Bit rate                                 : 40.7 kb/s
  525. Count of elements                        : 2918
  526. Stream size                              : 28.6 MiB (0%)
  527. Title                                    : Hungarian-PGS
  528. Language                                 : Hungarian
  529. Default                                  : No
  530. Forced                                   : No

  531. Text #16
  532. ID                                       : 31
  533. Format                                   : PGS
  534. Muxing mode                              : zlib
  535. Codec ID                                 : S_HDMV/PGS
  536. Codec ID/Info                            : Picture based subtitle format used on BDs/HD-DVDs
  537. Duration                                 : 1 h 38 min
  538. Bit rate                                 : 45.6 kb/s
  539. Count of elements                        : 3345
  540. Stream size                              : 32.1 MiB (0%)
  541. Title                                    : Indonesian-PGS
  542. Language                                 : Indonesian
  543. Default                                  : No
  544. Forced                                   : No

  545. Text #17
  546. ID                                       : 32
  547. Format                                   : PGS
  548. Muxing mode                              : zlib
  549. Codec ID                                 : S_HDMV/PGS
  550. Codec ID/Info                            : Picture based subtitle format used on BDs/HD-DVDs
  551. Duration                                 : 1 h 38 min
  552. Bit rate                                 : 34.6 kb/s
  553. Count of elements                        : 3504
  554. Stream size                              : 24.3 MiB (0%)
  555. Title                                    : Korean-PGS
  556. Language                                 : Korean
  557. Default                                  : No
  558. Forced                                   : No

  559. Text #18
  560. ID                                       : 33
  561. Format                                   : PGS
  562. Muxing mode                              : zlib
  563. Codec ID                                 : S_HDMV/PGS
  564. Codec ID/Info                            : Picture based subtitle format used on BDs/HD-DVDs
  565. Duration                                 : 1 h 38 min
  566. Bit rate                                 : 53.4 kb/s
  567. Count of elements                        : 3010
  568. Stream size                              : 37.5 MiB (0%)
  569. Title                                    : Malay-PGS
  570. Language                                 : Malay
  571. Default                                  : No
  572. Forced                                   : No

  573. Text #19
  574. ID                                       : 34
  575. Format                                   : PGS
  576. Muxing mode                              : zlib
  577. Codec ID                                 : S_HDMV/PGS
  578. Codec ID/Info                            : Picture based subtitle format used on BDs/HD-DVDs
  579. Duration                                 : 1 h 38 min
  580. Bit rate                                 : 37.2 kb/s
  581. Count of elements                        : 3308
  582. Stream size                              : 26.2 MiB (0%)
  583. Title                                    : Polish-PGS
  584. Language                                 : Polish
  585. Default                                  : No
  586. Forced                                   : No

  587. Text #20
  588. ID                                       : 35
  589. Format                                   : PGS
  590. Muxing mode                              : zlib
  591. Codec ID                                 : S_HDMV/PGS
  592. Codec ID/Info                            : Picture based subtitle format used on BDs/HD-DVDs
  593. Duration                                 : 1 h 24 min
  594. Bit rate                                 : 114 b/s
  595. Count of elements                        : 10
  596. Stream size                              : 71.3 KiB (0%)
  597. Title                                    : Polish-FORCED_PGS
  598. Language                                 : Polish
  599. Default                                  : No
  600. Forced                                   : No

  601. Text #21
  602. ID                                       : 36
  603. Format                                   : PGS
  604. Muxing mode                              : zlib
  605. Codec ID                                 : S_HDMV/PGS
  606. Codec ID/Info                            : Picture based subtitle format used on BDs/HD-DVDs
  607. Duration                                 : 1 h 38 min
  608. Bit rate                                 : 42.4 kb/s
  609. Count of elements                        : 3356
  610. Stream size                              : 29.8 MiB (0%)
  611. Title                                    : Portuguese-PGS
  612. Language                                 : Portuguese
  613. Default                                  : No
  614. Forced                                   : No

  615. Text #22
  616. ID                                       : 37
  617. Format                                   : PGS
  618. Muxing mode                              : zlib
  619. Codec ID                                 : S_HDMV/PGS
  620. Codec ID/Info                            : Picture based subtitle format used on BDs/HD-DVDs
  621. Duration                                 : 1 h 37 min
  622. Bit rate                                 : 1 543 b/s
  623. Count of elements                        : 116
  624. Stream size                              : 1.08 MiB (0%)
  625. Title                                    : Portuguese-FORCED-PGS
  626. Language                                 : Portuguese
  627. Default                                  : No
  628. Forced                                   : No

  629. Text #23
  630. ID                                       : 38
  631. Format                                   : PGS
  632. Muxing mode                              : zlib
  633. Codec ID                                 : S_HDMV/PGS
  634. Codec ID/Info                            : Picture based subtitle format used on BDs/HD-DVDs
  635. Duration                                 : 1 h 38 min
  636. Bit rate                                 : 45.7 kb/s
  637. Count of elements                        : 3218
  638. Stream size                              : 32.1 MiB (0%)
  639. Title                                    : Portuguese-PGS
  640. Language                                 : Portuguese
  641. Default                                  : No
  642. Forced                                   : No

  643. Text #24
  644. ID                                       : 39
  645. Format                                   : PGS
  646. Muxing mode                              : zlib
  647. Codec ID                                 : S_HDMV/PGS
  648. Codec ID/Info                            : Picture based subtitle format used on BDs/HD-DVDs
  649. Duration                                 : 1 h 38 min
  650. Bit rate                                 : 42.9 kb/s
  651. Count of elements                        : 3129
  652. Stream size                              : 30.2 MiB (0%)
  653. Title                                    : Romanian-PGS
  654. Language                                 : Romanian
  655. Default                                  : No
  656. Forced                                   : No

  657. Text #25
  658. ID                                       : 40
  659. Format                                   : PGS
  660. Muxing mode                              : zlib
  661. Codec ID                                 : S_HDMV/PGS
  662. Codec ID/Info                            : Picture based subtitle format used on BDs/HD-DVDs
  663. Duration                                 : 1 h 38 min
  664. Bit rate                                 : 33.7 kb/s
  665. Count of elements                        : 3464
  666. Stream size                              : 23.7 MiB (0%)
  667. Title                                    : Slovak-PGS
  668. Language                                 : Slovak
  669. Default                                  : No
  670. Forced                                   : No

  671. Text #26
  672. ID                                       : 41
  673. Format                                   : PGS
  674. Muxing mode                              : zlib
  675. Codec ID                                 : S_HDMV/PGS
  676. Codec ID/Info                            : Picture based subtitle format used on BDs/HD-DVDs
  677. Duration                                 : 1 h 38 min
  678. Bit rate                                 : 35.9 kb/s
  679. Count of elements                        : 2682
  680. Stream size                              : 25.2 MiB (0%)
  681. Title                                    : Slovenian-PGS
  682. Language                                 : Slovenian
  683. Default                                  : No
  684. Forced                                   : No

  685. Text #27
  686. ID                                       : 42
  687. Format                                   : PGS
  688. Muxing mode                              : zlib
  689. Codec ID                                 : S_HDMV/PGS
  690. Codec ID/Info                            : Picture based subtitle format used on BDs/HD-DVDs
  691. Duration                                 : 1 h 38 min
  692. Bit rate                                 : 43.3 kb/s
  693. Count of elements                        : 3380
  694. Stream size                              : 30.4 MiB (0%)
  695. Title                                    : Spanish-PGS
  696. Language                                 : Spanish
  697. Default                                  : No
  698. Forced                                   : No

  699. Text #28
  700. ID                                       : 43
  701. Format                                   : PGS
  702. Muxing mode                              : zlib
  703. Codec ID                                 : S_HDMV/PGS
  704. Codec ID/Info                            : Picture based subtitle format used on BDs/HD-DVDs
  705. Duration                                 : 1 h 33 min
  706. Bit rate                                 : 1 084 b/s
  707. Count of elements                        : 82
  708. Stream size                              : 739 KiB (0%)
  709. Title                                    : Spanish-FORCED-PGS
  710. Language                                 : Spanish
  711. Default                                  : No
  712. Forced                                   : No

  713. Text #29
  714. ID                                       : 44
  715. Format                                   : PGS
  716. Muxing mode                              : zlib
  717. Codec ID                                 : S_HDMV/PGS
  718. Codec ID/Info                            : Picture based subtitle format used on BDs/HD-DVDs
  719. Duration                                 : 1 h 38 min
  720. Bit rate                                 : 43.8 kb/s
  721. Count of elements                        : 3343
  722. Stream size                              : 30.8 MiB (0%)
  723. Title                                    : Spanish-PGS
  724. Language                                 : Spanish
  725. Default                                  : No
  726. Forced                                   : No

  727. Text #30
  728. ID                                       : 45
  729. Format                                   : PGS
  730. Muxing mode                              : zlib
  731. Codec ID                                 : S_HDMV/PGS
  732. Codec ID/Info                            : Picture based subtitle format used on BDs/HD-DVDs
  733. Duration                                 : 1 h 37 min
  734. Bit rate                                 : 881 b/s
  735. Count of elements                        : 72
  736. Stream size                              : 630 KiB (0%)
  737. Title                                    : Spanish-FORCED-PGS
  738. Language                                 : Spanish
  739. Default                                  : No
  740. Forced                                   : No

  741. Text #31
  742. ID                                       : 46
  743. Format                                   : PGS
  744. Muxing mode                              : zlib
  745. Codec ID                                 : S_HDMV/PGS
  746. Codec ID/Info                            : Picture based subtitle format used on BDs/HD-DVDs
  747. Duration                                 : 1 h 38 min
  748. Bit rate                                 : 33.7 kb/s
  749. Count of elements                        : 3488
  750. Stream size                              : 23.7 MiB (0%)
  751. Title                                    : Thai-PGS
  752. Language                                 : Thai
  753. Default                                  : No
  754. Forced                                   : No

  755. Text #32
  756. ID                                       : 47
  757. Format                                   : PGS
  758. Muxing mode                              : zlib
  759. Codec ID                                 : S_HDMV/PGS
  760. Codec ID/Info                            : Picture based subtitle format used on BDs/HD-DVDs
  761. Duration                                 : 1 h 33 min
  762. Bit rate                                 : 1 381 b/s
  763. Count of elements                        : 98
  764. Stream size                              : 942 KiB (0%)
  765. Title                                    : French-FORCED-PGS
  766. Language                                 : French
  767. Default                                  : No
  768. Forced                                   : No

  769. Text #33
  770. ID                                       : 48
  771. Format                                   : PGS
  772. Muxing mode                              : zlib
  773. Codec ID                                 : S_HDMV/PGS
  774. Codec ID/Info                            : Picture based subtitle format used on BDs/HD-DVDs
  775. Duration                                 : 1 h 33 min
  776. Bit rate                                 : 1 381 b/s
  777. Count of elements                        : 98
  778. Stream size                              : 942 KiB (0%)
  779. Title                                    : French-FORCED-PGS
  780. Language                                 : French
  781. Default                                  : No
  782. Forced                                   : No

  783. Text #34
  784. ID                                       : 49
  785. Format                                   : PGS
  786. Muxing mode                              : zlib
  787. Codec ID                                 : S_HDMV/PGS
  788. Codec ID/Info                            : Picture based subtitle format used on BDs/HD-DVDs
  789. Duration                                 : 1 h 38 min
  790. Bit rate                                 : 73.8 kb/s
  791. Count of elements                        : 3603
  792. Stream size                              : 52.1 MiB (0%)
  793. Title                                    : English-COMMENTARY-PGS
  794. Language                                 : English
  795. Default                                  : No
  796. Forced                                   : No

  797. Text #35
  798. ID                                       : 50
  799. Format                                   : PGS
  800. Muxing mode                              : zlib
  801. Codec ID                                 : S_HDMV/PGS
  802. Codec ID/Info                            : Picture based subtitle format used on BDs/HD-DVDs
  803. Duration                                 : 1 h 38 min
  804. Bit rate                                 : 61.0 kb/s
  805. Count of elements                        : 3585
  806. Stream size                              : 43.1 MiB (0%)
  807. Title                                    : Chinese-COMMENTARY-PGS
  808. Language                                 : Chinese
  809. Default                                  : No
  810. Forced                                   : No

  811. Text #36
  812. ID                                       : 51
  813. Format                                   : PGS
  814. Muxing mode                              : zlib
  815. Codec ID                                 : S_HDMV/PGS
  816. Codec ID/Info                            : Picture based subtitle format used on BDs/HD-DVDs
  817. Duration                                 : 1 h 38 min
  818. Bit rate                                 : 47.9 kb/s
  819. Count of elements                        : 3583
  820. Stream size                              : 33.8 MiB (0%)
  821. Title                                    : Korean-COMMENTARY-PGS
  822. Language                                 : Korean
  823. Default                                  : No
  824. Forced                                   : No

  825. Text #37
  826. ID                                       : 52
  827. Format                                   : PGS
  828. Muxing mode                              : zlib
  829. Codec ID                                 : S_HDMV/PGS
  830. Codec ID/Info                            : Picture based subtitle format used on BDs/HD-DVDs
  831. Duration                                 : 1 h 38 min
  832. Bit rate                                 : 67.9 kb/s
  833. Count of elements                        : 3585
  834. Stream size                              : 48.0 MiB (0%)
  835. Title                                    : Portuguese-COMENTARY-pgs
  836. Language                                 : Portuguese
  837. Default                                  : No
  838. Forced                                   : No

  839. Text #38
  840. ID                                       : 53
  841. Format                                   : PGS
  842. Muxing mode                              : zlib
  843. Codec ID                                 : S_HDMV/PGS
  844. Codec ID/Info                            : Picture based subtitle format used on BDs/HD-DVDs
  845. Duration                                 : 1 h 38 min
  846. Bit rate                                 : 62.5 kb/s
  847. Count of elements                        : 3585
  848. Stream size                              : 44.2 MiB (0%)
  849. Title                                    : Spanish-COMMENTARY-PGS
  850. Language                                 : Spanish
  851. Default                                  : No
  852. Forced                                   : No

  853. Text #39
  854. ID                                       : 54
  855. Format                                   : PGS
  856. Muxing mode                              : zlib
  857. Codec ID                                 : S_HDMV/PGS
  858. Codec ID/Info                            : Picture based subtitle format used on BDs/HD-DVDs
  859. Duration                                 : 1 h 38 min
  860. Bit rate                                 : 65.7 kb/s
  861. Count of elements                        : 3583
  862. Stream size                              : 46.4 MiB (0%)
  863. Title                                    : Spanish-COMMENTARY-PGS
  864. Language                                 : Spanish
  865. Default                                  : No
  866. Forced                                   : No

  867. Text #40
  868. ID                                       : 55
  869. Format                                   : PGS
  870. Muxing mode                              : zlib
  871. Codec ID                                 : S_HDMV/PGS
  872. Codec ID/Info                            : Picture based subtitle format used on BDs/HD-DVDs
  873. Duration                                 : 1 h 38 min
  874. Bit rate                                 : 64.5 kb/s
  875. Count of elements                        : 3581
  876. Stream size                              : 45.5 MiB (0%)
  877. Title                                    : Thai-COMMENTARY-PGS
  878. Language                                 : Thai
  879. Default                                  : No
  880. Forced                                   : No

  881. Menu
  882. 00:00:00.000                             : en:Chapter 01
  883. 00:05:01.134                             : en:Chapter 02
  884. 00:11:08.000                             : en:Chapter 03
  885. 00:15:24.173                             : en:Chapter 04
  886. 00:21:16.191                             : en:Chapter 05
  887. 00:29:15.545                             : en:Chapter 06
  888. 00:36:55.421                             : en:Chapter 07
  889. 00:44:03.015                             : en:Chapter 08
  890. 00:50:12.968                             : en:Chapter 09
  891. 00:57:52.510                             : en:Chapter 10
  892. 01:03:51.869                             : en:Chapter 11
  893. 01:06:50.047                             : en:Chapter 12
  894. 01:10:12.124                             : en:Chapter 13
  895. 01:15:40.494                             : en:Chapter 14
  896. 01:23:45.311                             : en:Chapter 15
  897. 01:29:48.216                             : en:Chapter 16
复制代码

28452582174319700547_medium.png 丧尸乐园2 Zombieland.Double.Tap.2019.2160p.BluRay.REMUX.HEVC.DTS-X.7.1-FGT 49.24GB-3.png 丧尸乐园2 Zombieland.Double.Tap.2019.2160p.BluRay.REMUX.HEVC.DTS-X.7.1-FGT 49.24GB-4.png







回复

使用道具 举报

 成长值: 1670

发表于 2020-1-10 16:17:53 | 显示全部楼层
谢谢楼主无私分享.
回复 支持 反对

使用道具 举报

发表于 2020-1-10 23:30:59 | 显示全部楼层

谢谢楼主无私分享.
回复 支持 反对

使用道具 举报

发表于 2020-1-12 22:31:52 | 显示全部楼层
谢谢楼主无私分享.
回复 支持 反对

使用道具 举报

发表于 2020-1-13 09:26:15 | 显示全部楼层
谢谢发片。
回复

使用道具 举报

发表于 2020-1-13 15:55:13 | 显示全部楼层

楼主太厉害了!楼主,电影应该很好看我觉得蓝光电影网真是个好地方!
回复 支持 反对

使用道具 举报

发表于 2020-1-13 21:09:43 | 显示全部楼层
谢谢分享!
回复

使用道具 举报

发表于 7 天前 | 显示全部楼层

这东西我收了!谢谢楼主!蓝光电影网真好!
回复 支持 反对

使用道具 举报

懒得打字嘛,点击右侧快捷回复 【右侧内容,后台自定义】
您需要登录后才可以回帖 登录 | 立即加入

本版积分规则

现在加入蓝光电影网,注册一个账号
上个主题 下个主题 快速回复 收藏帖子 返回列表 客服中心 搜索

手机版|小黑屋| 蓝光电影网 |网站地图 

Copyright © 2015-2019 Comsenz Inc.  Template by 蓝光电影论坛 All Rights Reserved.

Powered by 蓝光电影网 X3.4

特别声明:本站所有资源均由网上收集而来,版权归原影音公司所有,如果侵犯了你的权益,请通知我们,我们会及时删除侵权内容.

快速回复 返回顶部 返回列表