找回密码

蓝光电影网

查看: 1066|回复: 17

[2160p-WEB] 黑神锅传奇 The.Black.Cauldron.1985.2160p.DSNP.WEBRip.x265.10bit.HDR.DDP5.1-TrollUHD 10.85GB

[复制链接]

 成长值: 27175

发表于 2020-1-10 14:07:52 | 显示全部楼层 |阅读模式
黑神锅传奇 The.Black.Cauldron.1985.2160p.DSNP.WEBRip.x265.10bit.HDR.DDP5.1-TrollUHD 10.85GB-1.png

译  名 黑神锅传奇 / Taran and the Magic Cauldron / 黑神魔
片  名 The Black Cauldron
年  代 1985
产  地 美国
类  别 动画 / 家庭 / 奇幻 / 冒险
语  言 英语
上映日期 1985-07-24(美国) / 1986-10-19(中国大陆)
IMDb评分  6.4/10 from 28589 users
IMDb链接  https://www.imdb.com/title/tt0088814
豆瓣评分 6.4/10 from 223 users
豆瓣链接 https://movie.douban.com/subject/1764798/
片  长 80 分钟
导  演 Ted Berman / Richard Rich
编  剧 Rosemary Anne Sisson / Roy Edward Disney
主  演 Grant Bardsley
       Susan Sheridan
       Freddie Jones
       Nigel Hawthorne
       Arthur Malet


标  签 动画 | 迪士尼 | 美国 | 迪士尼经典动画 | Disney | 1985 | 美国动画 | 迪斯尼

简  介  

  《黑神锅传奇》The Black Cauldron (Disney Gold Classic Collection) (1985)是迪斯尼经典动画里最另类的一部作品。剧情叙述一位名叫塔兰(Taran)的少年,为了维护家乡和平,而与魔王The Horned King对抗,阻止其利用黑神锅的魔力危害世人。本片也是迪士尼动画第一次利用计算机来辅助拍摄,不过只有短短几个画面而已。
  本片在某些地区上映时采用另一片名“Taran and the Magic Cauldron”,而且片中有一些迪士尼动画里少见的血腥画面,与以往迪士尼动画风格似乎有些不同,因此本片被定位为只针对青少年观众,迥异于其他适合阖家观赏的迪士尼电影。本片也是迪士尼动画第一次藉由电脑来辅助拍摄,不过只有短短几个画面而已,到了隔年的《妙妙探》,迪士尼才第一次用电脑制作出一个独立的场景。本片是迪士尼经典动画里最另类的一部作品,因为走的不是传统家庭路线,故迪士尼对本片是否要推出录影带一直心存观望,况且还有一些版权等的争议…不过经过内部几番沟通后,本片终于在1997年底首度在英国发行录影带,但是心细的影迷立刻发现有几幕被删掉了!为此还向迪士尼提出抗议…至于美国则在1998年首度发行录影带,发行的则是当初完整的版本。

  1. Video
  2. ID                                       : 1
  3. Format                                   : HEVC
  4. Format/Info                              : High Efficiency Video Coding
  5. Format profile                           : Main 10@L5.1@High
  6. Codec ID                                 : V_MPEGH/ISO/HEVC
  7. Duration                                 : 1 h 20 min
  8. Bit rate                                 : 18.4 Mb/s
  9. Width                                    : 3 840 pixels
  10. Height                                   : 1 634 pixels
  11. Display aspect ratio                     : 2.35:1
  12. Frame rate mode                          : Constant
  13. Frame rate                               : 23.976 (24000/1001) FPS
  14. Color space                              : YUV
  15. Chroma subsampling                       : 4:2:0
  16. Bit depth                                : 10 bits
  17. Bits/(Pixel*Frame)                       : 0.122
  18. Stream size                              : 10.3 GiB (95%)
  19. Writing library                          : x265 3.2+23-52135ffd9bcd:[Windows][MSVC 1924][64 bit] 10bit
  20. Encoding settings                        : cpuid=1111039 / frame-threads=4 / numa-pools=0,28 / wpp / no-pmode / no-pme / no-psnr / no-ssim / log-level=2 / input-csp=1 / input-res=3840x1634 / interlace=0 / total-frames=0 / level-idc=51 / high-tier=1 / uhd-bd=0 / ref=5 / no-allow-non-conformance / repeat-headers / annexb / no-aud / no-hrd / info / hash=0 / no-temporal-layers / open-gop / min-keyint=23 / keyint=250 / gop-lookahead=0 / bframes=8 / b-adapt=2 / b-pyramid / bframe-bias=0 / rc-lookahead=40 / lookahead-slices=0 / scenecut=40 / hist-scenecut=0 / radl=0 / no-splice / no-intra-refresh / ctu=64 / min-cu-size=8 / no-rect / no-amp / max-tu-size=32 / tu-inter-depth=3 / tu-intra-depth=3 / limit-tu=0 / rdoq-level=1 / dynamic-rd=0.00 / no-ssim-rd / signhide / no-tskip / nr-intra=0 / nr-inter=0 / no-constrained-intra / strong-intra-smoothing / max-merge=5 / limit-refs=0 / no-limit-modes / me=3 / subme=4 / merange=57 / temporal-mvp / no-frame-dup / no-hme / weightp / weightb / no-analyze-src-pics / deblock=0:0 / no-sao / no-sao-non-deblock / rd=6 / selective-sao=0 / no-early-skip / rskip / no-fast-intra / no-tskip-fast / no-cu-lossless / b-intra / no-splitrd-skip / rdpenalty=0 / psy-rd=4.00 / psy-rdoq=8.00 / no-rd-refine / no-lossless / cbqpoffs=0 / crqpoffs=0 / rc=crf / crf=17.0 / qcomp=0.60 / qpstep=4 / stats-write=0 / stats-read=0 / vbv-maxrate=160000 / vbv-bufsize=160000 / vbv-init=0.9 / crf-max=0.0 / crf-min=0.0 / ipratio=1.40 / pbratio=1.30 / aq-mode=2 / aq-strength=1.00 / cutree / zone-count=0 / no-strict-cbr / qg-size=32 / no-rc-grain / qpmax=69 / qpmin=0 / no-const-vbv / sar=0 / overscan=0 / videoformat=5 / range=0 / colorprim=9 / transfer=16 / colormatrix=9 / chromaloc=0 / display-window=0 / cll=0,0 / min-luma=0 / max-luma=1023 / log2-max-poc-lsb=8 / vui-timing-info / vui-hrd-info / slices=1 / no-opt-qp-pps / no-opt-ref-list-length-pps / no-multi-pass-opt-rps / scenecut-bias=0.05 / hist-threshold=0.01 / no-opt-cu-delta-qp / no-aq-motion / hdr / hdr-opt / no-dhdr10-opt / no-idr-recovery-sei / analysis-reuse-level=5 / scale-factor=0 / refine-intra=0 / refine-inter=0 / refine-mv=1 / refine-ctu-distortion=0 / no-limit-sao / ctu-info=0 / no-lowpass-dct / refine-analysis-type=0 / copy-pic=1 / max-ausize-factor=1.0 / no-dynamic-refine / no-single-sei / no-hevc-aq / no-svt / no-field / qp-adaptation-range=1.00 / no-scenecut-aware-qp
  21. Default                                  : Yes
  22. Forced                                   : No
  23. Color range                              : Limited
  24. Color primaries                          : BT.2020
  25. Transfer characteristics                 : PQ
  26. Matrix coefficients                      : BT.2020 non-constant
  27. Audio
  28. ID                                       : 2
  29. Format                                   : E-AC-3
  30. Format/Info                              : Enhanced AC-3
  31. Commercial name                          : Dolby Digital Plus
  32. Codec ID                                 : A_EAC3
  33. Duration                                 : 1 h 20 min
  34. Bit rate mode                            : Constant
  35. Bit rate                                 : 640 kb/s
  36. Channel(s)                               : 6 channels
  37. Channel layout                           : L R C LFE Ls Rs
  38. Sampling rate                            : 48.0 kHz
  39. Frame rate                               : 31.250 FPS (1536 SPF)
  40. Compression mode                         : Lossy
  41. Stream size                              : 367 MiB (3%)
  42. Language                                 : English
  43. Service kind                             : Complete Main
  44. Default                                  : Yes
  45. Forced                                   : No
  46. Text
  47. ID                                       : 3
  48. Format                                   : UTF-8
  49. Codec ID                                 : S_TEXT/UTF8
  50. Codec ID/Info                            : UTF-8 Plain Text
  51. Language                                 : English
  52. Default                                  : No
  53. Forced                                   : No
  54. Menu
  55. 00:00:00.000                             : en:Studio Logo
  56. 00:00:19.000                             : en:The Legend of the Black Cauldron, Opening Credits
  57. 00:01:23.000                             : en:Dallben Fears Something Is Wrong
  58. 00:03:21.000                             : en:Taran Dreams of Being a Warrior
  59. 00:06:33.000                             : en:Dallben Uses Hen Wen's Powers
  60. 00:09:34.000                             : en:The Horned King Makes a Vow
  61. 00:11:24.000                             : en:Taran and Hen Wen Start Their Journey
  62. 00:15:39.000                             : en:Taran Tries to Save Hen Wen
  63. 00:18:19.000                             : en:Taran Tries to Find Hen Wen
  64. 00:21:02.000                             : en:Hen Wen Is Brought to the Horned King
  65. 00:23:42.000                             : en:Taran Tries to Escape
  66. 00:26:07.000                             : en:Taran Regrets His Actions
  67. 00:28:17.000                             : en:Taran and Eilonwy Search
  68. 00:30:22.000                             : en:Taran and Eilonwy Meet Fflewddur
  69. 00:32:29.000                             : en:Taran Makes a Discovery
  70. 00:34:27.000                             : en:Taran, Eilonwy, and Fflewddur Try to Escape
  71. 00:36:05.000                             : en:Creeper Gives Horned King the News
  72. 00:37:59.000                             : en:Eilonwy and Taran Argue
  73. 00:39:53.000                             : en:Taran Apologizes to Eilonwy
  74. 00:42:30.000                             : en:The Group Tries to Find Hen Wen
  75. 00:44:07.000                             : en:The Group Meet the Fairfolks
  76. 00:48:47.000                             : en:The Search for the Black Cauldron Continues
  77. 00:50:43.000                             : en:The Witches Torment Fflewddur
  78. 00:52:57.000                             : en:Taran Asks for the Black Cauldron
  79. 00:56:21.000                             : en:The Witches Offer a Warning
  80. 00:58:10.000                             : en:Doli Leaves in Anger and Taran Tries to Believe in Himself
  81. 00:59:49.000                             : en:The Horned King Executes His Plan
  82. 01:01:53.000                             : en:Dead Warriors Awaken and Gurgi Tries to Help
  83. 01:05:22.000                             : en:The Horned King Tries to Attack Taran
  84. 01:08:18.000                             : en:The Horned King's Castle Is Destroyed
  85. 01:10:58.000                             : en:Taran Tries to Strike another Bargain with the Witches
  86. 01:14:01.000                             : en:Gurgi Is Returned
  87. 01:16:04.000                             : en:End Credits
复制代码
043744b1rjsyymmjm0277m.png 043744zus8einad96b9b0u.png 043744rzsflmk6jkljajbt.png



回复

使用道具 举报

 成长值: 2395

发表于 2020-1-10 14:09:03 | 显示全部楼层
楼主发贴辛苦了,谢谢楼主分享!我觉得蓝光电影网是注册对了!
回复 支持 反对

使用道具 举报

发表于 2020-1-10 14:27:53 | 显示全部楼层

既然你诚信诚意的推荐了,那我就勉为其难的看看吧!蓝光电影网不走平凡路。
回复 支持 反对

使用道具 举报

发表于 2020-1-10 14:46:36 | 显示全部楼层

楼主太厉害了!楼主,电影应该很好看我觉得蓝光电影网真是个好地方!
回复 支持 反对

使用道具 举报

发表于 2020-1-10 14:46:44 | 显示全部楼层
动画片,啊,还是多谢分享。:D:D
回复 支持 反对

使用道具 举报

发表于 2020-1-10 20:37:53 | 显示全部楼层
楼主发贴辛苦了,谢谢楼主分享!我觉得蓝光电影网是注册对了!
回复 支持 反对

使用道具 举报

发表于 2020-1-11 18:16:27 | 显示全部楼层
找了好久了,辛苦了
回复 支持 反对

使用道具 举报

发表于 2020-1-11 18:21:23 | 显示全部楼层

这东西我收了!谢谢楼主!蓝光电影网真好!
回复 支持 反对

使用道具 举报

发表于 2020-1-11 19:01:55 | 显示全部楼层
楼主太厉害了!楼主,电影应该很好看我觉得蓝光电影网真是个好地方
回复 支持 反对

使用道具 举报

发表于 2020-1-11 19:03:10 | 显示全部楼层
楼主太厉害了!楼主,电影应该很好看我觉得蓝光电影网真是个好地方
回复 支持 反对

使用道具 举报

懒得打字嘛,点击右侧快捷回复 【右侧内容,后台自定义】
您需要登录后才可以回帖 登录 | 立即加入

本版积分规则

现在加入蓝光电影网,注册一个账号
上个主题 下个主题 快速回复 收藏帖子 返回列表 客服中心 搜索

手机版|小黑屋| 蓝光电影网 |网站地图 

Copyright © 2015-2019 Comsenz Inc.  Template by 蓝光电影论坛 All Rights Reserved.

Powered by 蓝光电影网 X3.4

特别声明:本站所有资源均由网上收集而来,版权归原影音公司所有,如果侵犯了你的权益,请通知我们,我们会及时删除侵权内容.

快速回复 返回顶部 返回列表