找回密码

蓝光电影网

查看: 1499|回复: 17

[2160p-WEB] 小姐与流浪汉/小姐与流氓 Lady.and.the.Tramp.2019.RERip.2160p.DSNP.WEBRip.x265.10bit.HDR.DD5.1.Atmos-TrollUHD 15.44GB

[复制链接]

 成长值: 27235

发表于 2020-1-8 21:14:05 | 显示全部楼层 |阅读模式
小姐与流浪汉/小姐与流氓 Lady.and.the.Tramp.2019.RERip.2160p.DSNP.WEBRip.x265.10bit.HDR.DD5.1.Atmos-TrollUHD 15.44GB-1.png

译  名 小姐与流浪汉 / 小姐与流氓
片  名 Lady and the Tramp
年  代 2019
产  地 美国
类  别 剧情 / 喜剧 / 爱情 / 动画 / 家庭 / 冒险
语  言 英语
上映日期 2019-11-12(美国)
IMDb评分  6.3/10 from 7185 users
IMDb链接  https://www.imdb.com/title/tt8096832
豆瓣评分 6.8/10 from 1296 users
豆瓣链接 https://movie.douban.com/subject/30175647/
片  长 103分钟
导  演 查理·宾 Charlie Bean
编  剧 安德鲁·布加尔斯基 Andrew Bujalski
主  演 贾斯汀·塞洛克斯 Justin Theroux
       泰莎·汤普森 Tessa Thompson
       加奈儿·梦奈 Janelle Monáe
       黄凯旋 Benedict Wong
       阿什利·詹森 Ashley Jensen
       山姆·艾里奥特 Sam Elliott
       托马斯·曼 Thomas Mann
       科雷西·克莱门斯 Kiersey Clemons
       阿图罗·卡斯特罗 Arturo Castro
       伊薇特·尼科尔·布朗 Yvette Nicole Brown
       迈克尔·图尔克 Michael Tourek
       马特·默丘里奥 Matt Mercurio
       阿德里安·马丁斯 Adrian Martinez
       罗伯特·沃克·布兰乔德 Robert Walker Branchaud
       柯蒂斯·莱昂斯 Curtis Lyons
       Regina Ting Chen
       Jennifer Christa Palmer
       Ardian Martinez


标  签 迪士尼 | 美国 | 狗狗 | 动画 | 喜剧 | Disney | 2019 | 家庭

简  介  

  迪士尼欲打造真人CG版[小姐与流浪汉],[乐高忍者大电影]导演查理·宾将执导该片,安德鲁·布加尔斯基操刀剧本。原版1955年动画故事讲述宠物狗”淑女“离家出走后遇到好心流浪狗查普,他们很快成为朋友,在种种磨难后,他们也擦出爱的火花。目前影片卡司阵容尚未公布。
  1. Video
  2. ID                                       : 1
  3. Format                                   : HEVC
  4. Format/Info                              : High Efficiency Video Coding
  5. Format profile                           : Main High@L4@Main
  6. Codec ID                                 : V_MPEGH/ISO/HEVC
  7. Duration                                 : 1 h 42 min
  8. Bit rate                                 : 20.7 Mb/s
  9. Width                                    : 3 840 pixels
  10. Height                                   : 1 920 pixels
  11. Display aspect ratio                     : 2.000
  12. Frame rate mode                          : Constant
  13. Frame rate                               : 23.976 (24000/1001) FPS
  14. Color space                              : YUV
  15. Chroma subsampling                       : 4:2:0
  16. Bit depth                                : 10 bits
  17. Bits/(Pixel*Frame)                       : 0.117
  18. Stream size                              : 14.9 GiB (96%)
  19. Writing library                          : x265 3.27fc1f6ef2b96:[Windows][MSVC 1923][64 bit] 10bit

  20. Default                                  : Yes
  21. Forced                                   : No
  22. Color range                              : Limited
  23. Color primaries                          : BT.2020
  24. Transfer characteristics                 : PQ
  25. Matrix coefficients                      : BT.2020 non-constant

  26. Audio
  27. ID                                       : 2
  28. Format                                   : E-AC-3 JOC
  29. Format/Info                              : Enhanced AC-3 with Joint Object Coding
  30. Commercial name                          : Dolby Digital Plus with Dolby Atmos
  31. Codec ID                                 : A_EAC3
  32. Duration                                 : 1 h 42 min
  33. Bit rate mode                            : Constant
  34. Bit rate                                 : 768 kb/s
  35. Channel(s)                               : 6 channels
  36. Channel layout                           : L R C LFE Ls Rs
  37. Sampling rate                            : 48.0 kHz
  38. Frame rate                               : 31.250 FPS (1536 SPF)
  39. Compression mode                         : Lossy
  40. Stream size                              : 565 MiB (4%)
  41. Language                                 : English
  42. Service kind                             : Complete Main
  43. Default                                  : Yes
  44. Forced                                   : No
  45. Complexity index                         : 16
  46. Number of dynamic objects                : 15
  47. Bed channel count                        : 1 channel
  48. Bed channel configuration                : LFE

  49. Text #1
  50. ID                                       : 3
  51. Format                                   : UTF-8
  52. Codec ID                                 : S_TEXT/UTF8
  53. Codec ID/Info                            : UTF-8 Plain Text
  54. Duration                                 : 1 h 40 min
  55. Bit rate                                 : 72 b/s
  56. Count of elements                        : 1803
  57. Stream size                              : 53.6 KiB (0%)
  58. Title                                    : English
  59. Language                                 : English
  60. Default                                  : No
  61. Forced                                   : No

  62. Text #2
  63. ID                                       : 4
  64. Format                                   : UTF-8
  65. Codec ID                                 : S_TEXT/UTF8
  66. Codec ID/Info                            : UTF-8 Plain Text
  67. Duration                                 : 1 h 41 min
  68. Bit rate                                 : 52 b/s
  69. Count of elements                        : 1180
  70. Stream size                              : 39.1 KiB (0%)
  71. Title                                    : Dutch
  72. Language                                 : Dutch
  73. Default                                  : No
  74. Forced                                   : No

  75. Text #3
  76. ID                                       : 5
  77. Format                                   : UTF-8
  78. Codec ID                                 : S_TEXT/UTF8
  79. Codec ID/Info                            : UTF-8 Plain Text
  80. Duration                                 : 1 h 41 min
  81. Bit rate                                 : 48 b/s
  82. Count of elements                        : 1461
  83. Stream size                              : 36.1 KiB (0%)
  84. Title                                    : French
  85. Language                                 : French
  86. Default                                  : No
  87. Forced                                   : No

  88. Text #4
  89. ID                                       : 6
  90. Format                                   : UTF-8
  91. Codec ID                                 : S_TEXT/UTF8
  92. Codec ID/Info                            : UTF-8 Plain Text
  93. Duration                                 : 1 h 41 min
  94. Bit rate                                 : 54 b/s
  95. Count of elements                        : 1424
  96. Stream size                              : 40.3 KiB (0%)
  97. Title                                    : Spanish
  98. Language                                 : Spanish
  99. Default                                  : No
  100. Forced                                   : No
复制代码

小姐与流浪汉/小姐与流氓 Lady.and.the.Tramp.2019.RERip.2160p.DSNP.WEBRip.x265.10bit.HDR.DD5.1.Atmos-TrollUHD 15.44GB-2.png 小姐与流浪汉/小姐与流氓 Lady.and.the.Tramp.2019.RERip.2160p.DSNP.WEBRip.x265.10bit.HDR.DD5.1.Atmos-TrollUHD 15.44GB-3.png 小姐与流浪汉/小姐与流氓 Lady.and.the.Tramp.2019.RERip.2160p.DSNP.WEBRip.x265.10bit.HDR.DD5.1.Atmos-TrollUHD 15.44GB-4.png







回复

使用道具 举报

发表于 2020-1-9 06:49:42 | 显示全部楼层
经济看看
回复

使用道具 举报

发表于 2020-1-9 08:48:12 | 显示全部楼层
楼主发贴辛苦了,谢谢楼主分享!我觉得蓝光电影网是注册对了!
回复 支持 反对

使用道具 举报

发表于 2020-1-9 14:32:15 | 显示全部楼层

既然你诚信诚意的推荐了,那我就勉为其难的看看吧!蓝光电影网不走平凡路。
回复 支持 反对

使用道具 举报

 成长值: 5710

发表于 2020-1-9 15:15:49 | 显示全部楼层

感谢楼主的无私分享!要想蓝光电影网好 就靠你我他
回复 支持 反对

使用道具 举报

发表于 2020-1-9 21:49:32 | 显示全部楼层

楼主太厉害了!楼主,电影应该很好看我觉得蓝光电影网真是个好地方!
回复 支持 反对

使用道具 举报

发表于 2020-1-10 11:21:11 | 显示全部楼层
这里的资源丰富,好地方。
回复 支持 反对

使用道具 举报

发表于 2020-1-10 23:38:45 | 显示全部楼层

谢谢楼主无私分享.
回复 支持 反对

使用道具 举报

 成长值: 3635

发表于 2020-1-14 13:04:55 | 显示全部楼层
谢谢,有否字幕
回复 支持 反对

使用道具 举报

发表于 2020-1-16 17:06:26 | 显示全部楼层
感谢分享,辛苦了,又一部翻拍老动画片,真人版别有风味。:D
回复 支持 反对

使用道具 举报

懒得打字嘛,点击右侧快捷回复 【右侧内容,后台自定义】
您需要登录后才可以回帖 登录 | 立即加入

本版积分规则

现在加入蓝光电影网,注册一个账号
上个主题 下个主题 快速回复 收藏帖子 返回列表 客服中心 搜索

手机版|小黑屋| 蓝光电影网 |网站地图 

Copyright © 2015-2019 Comsenz Inc.  Template by 蓝光电影论坛 All Rights Reserved.

Powered by 蓝光电影网 X3.4

特别声明:本站所有资源均由网上收集而来,版权归原影音公司所有,如果侵犯了你的权益,请通知我们,我们会及时删除侵权内容.

快速回复 返回顶部 返回列表