找回密码

蓝光电影网

查看: 1174|回复: 11

[10bit.SDR] 龟女士的奥德赛 Turtle.Odyssey.2019.DOCU.2160p.BluRay.x265.10bit.SDR.DTS-X.7.1-SWTYBLZ 11.22GB

[复制链接]

 成长值: 27235

发表于 2020-1-7 20:21:59 | 显示全部楼层 |阅读模式
龟女士的奥德赛 Turtle.Odyssey.2019.DOCU.2160p.BluRay.x265.10bit.SDR.DTS-X.7.1-SWTYBLZ 11.22GB-1.png

译  名 龟女士的奥德赛
片  名 Turtle Odyssey
年  代 2018
产  地 澳大利亚
类  别 纪录片
语  言 英语
上映日期 2018-06-30(澳大利亚)
IMDb评分  7.2/10 from 91 users
IMDb链接  https://www.imdb.com/title/tt6728264
豆瓣评分 0/10 from 0 users
豆瓣链接 https://movie.douban.com/subject/30250436/
片  长 45分钟
导  演 Caspar Mazzotti / Paul Phelan
编  剧 Amelia McCarten / Paul Phelan
主  演 罗素·克劳 Russell Crowe


标  签 紀錄片 | 科教片 | 电影 | 已经存档 | P | IMAX | 4K | 22.49BW

简  介  

  《龟女士的奥德赛》讲述了一只名叫本吉(Bunji)澳大利亚绿海龟的独特的一生,以及她在广阔海洋中的奇妙旅程。她在数千英里的旅程中,遇到的许许多多令人难以置信的生物。
  1. Video
  2. ID                                       : 1
  3. Format                                   : HEVC
  4. Format/Info                              : High Efficiency Video Coding
  5. Format profile                           : Main High@L4@High
  6. Codec ID                                 : V_MPEGH/ISO/HEVC
  7. Duration                                 : 41 min 9 s
  8. Bit rate                                 : 30.3 Mb/s
  9. Width                                    : 3 840 pixels
  10. Height                                   : 2 160 pixels
  11. Display aspect ratio                     : 16:9
  12. Frame rate mode                          : Constant
  13. Frame rate                               : 23.976 (24000/1001) FPS
  14. Color space                              : YUV
  15. Chroma subsampling                       : 4:2:0
  16. Bit depth                                : 10 bits
  17. Bits/(Pixel*Frame)                       : 0.153
  18. Stream size                              : 8.73 GiB (79%)
  19. Title                                    : Turtle.Odyssey.2019.DOCU.2160p.BluRay.x265.10bit.SDR.DTS-X.7.1-SWTYBLZ
  20. Writing library                          : x265 3.0ed72af837053:[Windows][GCC 8.2.0][64 bit] 10bit
  21. Encoding settings                        : cpuid=1111039 / frame-threads=16 / numa-pools=16,16 / wpp / no-pmode / no-pme / no-psnr / no-ssim / log-level=2 / input-csp=1 / input-res=3840x2160 / interlace=0 / total-frames=59219 / level-idc=51 / high-tier=1 / uhd-bd=0 / ref=3 / no-allow-non-conformance / repeat-headers / annexb / aud / hrd / info / hash=0 / no-temporal-layers / no-open-gop / min-keyint=1 / keyint=24 / gop-lookahead=0 / bframes=4 / b-adapt=2 / b-pyramid / bframe-bias=0 / rc-lookahead=25 / lookahead-slices=4 / scenecut=40 / radl=0 / no-splice / no-intra-refresh / ctu=64 / min-cu-size=8 / no-rect / no-amp / max-tu-size=32 / tu-inter-depth=1 / tu-intra-depth=1 / limit-tu=0 / rdoq-level=0 / dynamic-rd=0.00 / no-ssim-rd / signhide / no-tskip / nr-intra=0 / nr-inter=0 / no-constrained-intra / strong-intra-smoothing / max-merge=2 / limit-refs=3 / no-limit-modes / me=1 / subme=2 / merange=57 / temporal-mvp / weightp / no-weightb / no-analyze-src-pics / deblock=0:0 / no-sao / no-sao-non-deblock / rd=3 / no-early-skip / rskip / no-fast-intra / no-tskip-fast / no-cu-lossless / no-b-intra / no-splitrd-skip / rdpenalty=0 / psy-rd=2.00 / psy-rdoq=0.00 / no-rd-refine / no-lossless / cbqpoffs=0 / crqpoffs=0 / rc=crf / crf=16.0 / qcomp=0.60 / qpstep=4 / stats-write=0 / stats-read=0 / vbv-maxrate=160000 / vbv-bufsize=160000 / vbv-init=0.9 / crf-max=0.0 / crf-min=0.0 / ipratio=1.40 / pbratio=1.30 / aq-mode=1 / aq-strength=1.00 / cutree / zone-count=0 / no-strict-cbr / qg-size=32 / no-rc-grain / qpmax=69 / qpmin=0 / no-const-vbv / sar=1 / overscan=0 / videoformat=5 / range=0 / colorprim=2 / transfer=2 / colormatrix=2 / chromaloc=0 / display-window=0 / max-cll=0,0 / min-luma=0 / max-luma=1023 / log2-max-poc-lsb=8 / vui-timing-info / vui-hrd-info / slices=1 / opt-qp-pps / opt-ref-list-length-pps / no-multi-pass-opt-rps / scenecut-bias=0.05 / no-opt-cu-delta-qp / no-aq-motion / no-hdr / no-hdr-opt / no-dhdr10-opt / no-idr-recovery-sei / analysis-reuse-level=5 / scale-factor=0 / refine-intra=0 / refine-inter=0 / refine-mv=0 / refine-ctu-distortion=0 / no-limit-sao / ctu-info=0 / no-lowpass-dct / refine-analysis-type=0 / copy-pic=1 / max-ausize-factor=1.0 / no-dynamic-refine / no-single-sei / no-hevc-aq / qp-adaptation-range=1.00
  22. Language                                 : English
  23. Default                                  : Yes
  24. Forced                                   : No

  25. Audio #1
  26. ID                                       : 2
  27. Format                                   : DTS XLL
  28. Format/Info                              : Digital Theater Systems
  29. Commercial name                          : DTS-HD Master Audio
  30. Codec ID                                 : A_DTS
  31. Duration                                 : 41 min 9 s
  32. Bit rate mode                            : Variable
  33. Bit rate                                 : 7 615 kb/s
  34. Channel(s)                               : 8 channels
  35. Channel layout                           : C L R LFE Lb Rb Lss Rss
  36. Sampling rate                            : 48.0 kHz
  37. Frame rate                               : 93.750 FPS (512 SPF)
  38. Bit depth                                : 24 bits
  39. Compression mode                         : Lossless
  40. Stream size                              : 2.19 GiB (20%)
  41. Title                                    : Turtle.Odyssey.2019.DOCU.2160p.BluRay.x265.10bit.SDR.DTS-X.7.1-SWTYBLZ
  42. Language                                 : English
  43. Default                                  : Yes
  44. Forced                                   : No

  45. Audio #2
  46. ID                                       : 3
  47. Format                                   : AC-3
  48. Format/Info                              : Audio Coding 3
  49. Commercial name                          : Dolby Digital
  50. Codec ID                                 : A_AC3
  51. Duration                                 : 41 min 9 s
  52. Bit rate mode                            : Constant
  53. Bit rate                                 : 640 kb/s
  54. Channel(s)                               : 6 channels
  55. Channel layout                           : L R C LFE Ls Rs
  56. Sampling rate                            : 48.0 kHz
  57. Frame rate                               : 31.250 FPS (1536 SPF)
  58. Bit depth                                : 16 bits
  59. Compression mode                         : Lossy
  60. Stream size                              : 188 MiB (2%)
  61. Title                                    : Turtle.Odyssey.2019.DOCU.2160p.BluRay.x265.10bit.SDR.DTS-X.7.1-SWTYBLZ
  62. Language                                 : English
  63. Service kind                             : Complete Main
  64. Default                                  : No
  65. Forced                                   : No

  66. Text #1
  67. ID                                       : 4
  68. Format                                   : UTF-8
  69. Codec ID                                 : S_TEXT/UTF8
  70. Codec ID/Info                            : UTF-8 Plain Text
  71. Duration                                 : 39 min 26 s
  72. Bit rate                                 : 46 b/s
  73. Count of elements                        : 395
  74. Stream size                              : 13.5 KiB (0%)
  75. Title                                    : English-SRT
  76. Language                                 : English
  77. Default                                  : Yes
  78. Forced                                   : No

  79. Text #2
  80. ID                                       : 5
  81. Format                                   : PGS
  82. Muxing mode                              : zlib
  83. Codec ID                                 : S_HDMV/PGS
  84. Codec ID/Info                            : Picture based subtitle format used on BDs/HD-DVDs
  85. Duration                                 : 39 min 26 s
  86. Bit rate                                 : 32.0 kb/s
  87. Count of elements                        : 790
  88. Stream size                              : 9.02 MiB (0%)
  89. Title                                    : English-PGS
  90. Language                                 : English
  91. Default                                  : No
  92. Forced                                   : No

  93. Menu
  94. 00:00:00.000                             : en:Chapter 01
  95. 00:05:04.512                             : en:Chapter 02
  96. 00:09:17.056                             : en:Chapter 03
  97. 00:13:04.867                             : en:Chapter 04
  98. 00:17:01.729                             : en:Chapter 05
  99. 00:20:52.334                             : en:Chapter 06
  100. 00:22:18.170                             : en:Chapter 07
  101. 00:25:10.675                             : en:Chapter 08
  102. 00:28:20.615                             : en:Chapter 09
  103. 00:33:08.444                             : en:Chapter 10
  104. 00:35:26.791                             : en:Chapter 11
  105. 00:39:33.454                             : en:Chapter 12
复制代码

201624pmzqpgpmb6qieggb.png 龟女士的奥德赛 Turtle.Odyssey.2019.DOCU.2160p.BluRay.x265.10bit.SDR.DTS-X.7.1-SWTYBLZ 11.22GB-3.png 龟女士的奥德赛 Turtle.Odyssey.2019.DOCU.2160p.BluRay.x265.10bit.SDR.DTS-X.7.1-SWTYBLZ 11.22GB-4.png 龟女士的奥德赛 Turtle.Odyssey.2019.DOCU.2160p.BluRay.x265.10bit.SDR.DTS-X.7.1-SWTYBLZ 11.22GB-5.png 龟女士的奥德赛 Turtle.Odyssey.2019.DOCU.2160p.BluRay.x265.10bit.SDR.DTS-X.7.1-SWTYBLZ 11.22GB-6.png 龟女士的奥德赛 Turtle.Odyssey.2019.DOCU.2160p.BluRay.x265.10bit.SDR.DTS-X.7.1-SWTYBLZ 11.22GB-7.png







回复

使用道具 举报

发表于 2020-1-8 07:06:14 | 显示全部楼层
楼主发贴辛苦了,谢谢楼主分享!我觉得蓝光电影网是注册对了!
回复 支持 反对

使用道具 举报

发表于 2020-1-8 11:13:46 | 显示全部楼层
楼主发贴辛苦了,谢谢楼主分享!我觉得蓝光电影网是注册对了!
回复 支持 反对

使用道具 举报

发表于 2020-1-8 11:43:54 | 显示全部楼层

这东西我收了!谢谢楼主!蓝光电影网真好!
回复 支持 反对

使用道具 举报

发表于 2020-1-8 17:33:54 | 显示全部楼层
楼主发贴辛苦了,谢谢楼主分享!我觉得蓝光电影网是注册对了!
回复 支持 反对

使用道具 举报

发表于 2020-1-9 06:58:50 | 显示全部楼层

楼主太厉害了!楼主,电影应该很好看我觉得蓝光电影网真是个好地方!
回复 支持 反对

使用道具 举报

发表于 2020-1-9 08:21:42 | 显示全部楼层
下载看看怎样
回复 支持 反对

使用道具 举报

发表于 2020-1-9 09:03:10 | 显示全部楼层
学到知识了,谢谢分享!
回复 支持 反对

使用道具 举报

发表于 2020-1-10 01:55:14 | 显示全部楼层
这个来看看呢
回复 支持 反对

使用道具 举报

发表于 2020-1-10 11:38:29 | 显示全部楼层

这个帖子不回对不起自己!我想我是一天也不能离开蓝光电影网
回复 支持 反对

使用道具 举报

懒得打字嘛,点击右侧快捷回复 【右侧内容,后台自定义】
您需要登录后才可以回帖 登录 | 立即加入

本版积分规则

现在加入蓝光电影网,注册一个账号
上个主题 下个主题 快速回复 收藏帖子 返回列表 客服中心 搜索

手机版|小黑屋| 蓝光电影网 |网站地图 

Copyright © 2015-2019 Comsenz Inc.  Template by 蓝光电影论坛 All Rights Reserved.

Powered by 蓝光电影网 X3.4

特别声明:本站所有资源均由网上收集而来,版权归原影音公司所有,如果侵犯了你的权益,请通知我们,我们会及时删除侵权内容.

快速回复 返回顶部 返回列表