找回密码

蓝光电影网

查看: 404|回复: 3

[REMUX.HEVC] 龟女士的奥德赛 Turtle.Odyssey.2019.DOCU.2160p.BluRay.REMUX.HEVC.DTS-X.7.1-FGT 17.88GB

[复制链接]

 成长值: 24205

发表于 2020-1-7 20:12:07 | 显示全部楼层 |阅读模式
龟女士的奥德赛 Turtle.Odyssey.2019.DOCU.2160p.BluRay.REMUX.HEVC.DTS-X.7.1-FGT 17.88GB-1.png

译  名 龟女士的奥德赛
片  名 Turtle Odyssey
年  代 2018
产  地 澳大利亚
类  别 纪录片
语  言 英语
上映日期 2018-06-30(澳大利亚)
IMDb评分  7.2/10 from 91 users
IMDb链接  https://www.imdb.com/title/tt6728264
豆瓣评分 0/10 from 0 users
豆瓣链接 https://movie.douban.com/subject/30250436/
片  长 45分钟
导  演 Caspar Mazzotti / Paul Phelan
编  剧 Amelia McCarten / Paul Phelan
主  演 罗素·克劳 Russell Crowe


标  签 紀錄片 | 科教片 | 电影 | 已经存档 | P | IMAX | 4K | 22.49BW

简  介  

  《龟女士的奥德赛》讲述了一只名叫本吉(Bunji)澳大利亚绿海龟的独特的一生,以及她在广阔海洋中的奇妙旅程。她在数千英里的旅程中,遇到的许许多多令人难以置信的生物。
  1. Video
  2. ID                                       : 1
  3. Format                                   : HEVC
  4. Format/Info                              : High Efficiency Video Coding
  5. Format profile                           : Main High@L4@High
  6. HDR format                               : SMPTE ST 2086, HDR10 compatible
  7. Codec ID                                 : V_MPEGH/ISO/HEVC
  8. Duration                                 : 41 min 9 s
  9. Bit rate                                 : 47.0 Mb/s
  10. Width                                    : 3 840 pixels
  11. Height                                   : 2 160 pixels
  12. Display aspect ratio                     : 16:9
  13. Frame rate mode                          : Constant
  14. Frame rate                               : 23.976 (24000/1001) FPS
  15. Color space                              : YUV
  16. Chroma subsampling                       : 4:2:0 (Type 2)
  17. Bit depth                                : 10 bits
  18. Bits/(Pixel*Frame)                       : 0.236
  19. Stream size                              : 13.5 GiB (76%)
  20. Title                                    : Turtle.Odyssey.2018.2160p.BluRay.REMUX.HEVC.DTS-X.7.1-FGT
  21. Language                                 : English
  22. Default                                  : No
  23. Forced                                   : No
  24. Color range                              : Limited
  25. Color primaries                          : BT.2020
  26. Transfer characteristics                 : PQ
  27. Matrix coefficients                      : BT.2020 non-constant
  28. Mastering display color primaries        : BT.2020
  29. Mastering display luminance              : min: 0.0010 cd/m2, max: 1000 cd/m2
  30. Maximum Content Light Level              : 996 cd/m2
  31. Maximum Frame-Average Light Level        : 401 cd/m2

  32. Audio #1
  33. ID                                       : 2
  34. Format                                   : DTS XLL
  35. Format/Info                              : Digital Theater Systems
  36. Commercial name                          : DTS-HD Master Audio
  37. Codec ID                                 : A_DTS
  38. Duration                                 : 41 min 9 s
  39. Bit rate mode                            : Variable
  40. Bit rate                                 : 7 615 kb/s
  41. Channel(s)                               : 8 channels
  42. Channel layout                           : C L R LFE Lb Rb Lss Rss
  43. Sampling rate                            : 48.0 kHz
  44. Frame rate                               : 93.750 FPS (512 SPF)
  45. Bit depth                                : 24 bits
  46. Compression mode                         : Lossless
  47. Stream size                              : 2.19 GiB (12%)
  48. Title                                    : Turtle.Odyssey.2018.2160p.BluRay.REMUX.HEVC.DTS-X.7.1-FGT
  49. Language                                 : English
  50. Default                                  : Yes
  51. Forced                                   : No

  52. Audio #2
  53. ID                                       : 3
  54. Format                                   : DTS XLL
  55. Format/Info                              : Digital Theater Systems
  56. Commercial name                          : DTS-HD Master Audio
  57. Codec ID                                 : A_DTS
  58. Duration                                 : 41 min 8 s
  59. Bit rate mode                            : Variable
  60. Bit rate                                 : 3 795 kb/s
  61. Channel(s)                               : 6 channels
  62. Channel layout                           : C L R Ls Rs LFE
  63. Sampling rate                            : 48.0 kHz
  64. Frame rate                               : 93.750 FPS (512 SPF)
  65. Bit depth                                : 24 bits
  66. Compression mode                         : Lossless
  67. Stream size                              : 1.09 GiB (6%)
  68. Title                                    : Turtle.Odyssey.2018.2160p.BluRay.REMUX.HEVC.DTS-X.7.1-FGT
  69. Language                                 : French
  70. Default                                  : No
  71. Forced                                   : No

  72. Audio #3
  73. ID                                       : 4
  74. Format                                   : DTS XLL
  75. Format/Info                              : Digital Theater Systems
  76. Commercial name                          : DTS-HD Master Audio
  77. Codec ID                                 : A_DTS
  78. Duration                                 : 41 min 8 s
  79. Bit rate mode                            : Variable
  80. Bit rate                                 : 3 746 kb/s
  81. Channel(s)                               : 6 channels
  82. Channel layout                           : C L R Ls Rs LFE
  83. Sampling rate                            : 48.0 kHz
  84. Frame rate                               : 93.750 FPS (512 SPF)
  85. Bit depth                                : 24 bits
  86. Compression mode                         : Lossless
  87. Stream size                              : 1.08 GiB (6%)
  88. Title                                    : Turtle.Odyssey.2018.2160p.BluRay.REMUX.HEVC.DTS-X.7.1-FGT
  89. Language                                 : Spanish
  90. Default                                  : No
  91. Forced                                   : No

  92. Text #1
  93. ID                                       : 5
  94. Format                                   : UTF-8
  95. Codec ID                                 : S_TEXT/UTF8
  96. Codec ID/Info                            : UTF-8 Plain Text
  97. Duration                                 : 39 min 26 s
  98. Bit rate                                 : 46 b/s
  99. Count of elements                        : 395
  100. Stream size                              : 13.5 KiB (0%)
  101. Title                                    : English-SRT
  102. Language                                 : English
  103. Default                                  : Yes
  104. Forced                                   : No

  105. Text #2
  106. ID                                       : 6
  107. Format                                   : PGS
  108. Muxing mode                              : zlib
  109. Codec ID                                 : S_HDMV/PGS
  110. Codec ID/Info                            : Picture based subtitle format used on BDs/HD-DVDs
  111. Duration                                 : 39 min 26 s
  112. Bit rate                                 : 32.0 kb/s
  113. Count of elements                        : 790
  114. Stream size                              : 9.02 MiB (0%)
  115. Title                                    : English-PGS
  116. Language                                 : English
  117. Default                                  : No
  118. Forced                                   : No

  119. Menu
  120. 00:00:00.000                             : en:Chapter 01
  121. 00:05:04.512                             : en:Chapter 02
  122. 00:09:17.056                             : en:Chapter 03
  123. 00:13:04.867                             : en:Chapter 04
  124. 00:17:01.729                             : en:Chapter 05
  125. 00:20:52.334                             : en:Chapter 06
  126. 00:22:18.170                             : en:Chapter 07
  127. 00:25:10.675                             : en:Chapter 08
  128. 00:28:20.615                             : en:Chapter 09
  129. 00:33:08.444                             : en:Chapter 10
  130. 00:35:26.791                             : en:Chapter 11
  131. 00:39:33.454                             : en:Chapter 12
复制代码

龟女士的奥德赛 Turtle.Odyssey.2019.DOCU.2160p.BluRay.REMUX.HEVC.DTS-X.7.1-FGT 17.88GB-2.png 201017on7t8m7q7rqp177r.png 龟女士的奥德赛 Turtle.Odyssey.2019.DOCU.2160p.BluRay.REMUX.HEVC.DTS-X.7.1-FGT 17.88GB-4.png







回复

使用道具 举报

 成长值: 1670

发表于 2020-1-7 20:25:30 | 显示全部楼层
谢谢楼主无私分享。
回复 支持 反对

使用道具 举报

发表于 2020-1-8 09:18:24 | 显示全部楼层
谢谢发片。
回复

使用道具 举报

发表于 2020-1-10 18:55:49 | 显示全部楼层

楼主太厉害了!楼主,电影应该很好看我觉得蓝光电影网真是个好地方!
回复 支持 反对

使用道具 举报

懒得打字嘛,点击右侧快捷回复 【右侧内容,后台自定义】
您需要登录后才可以回帖 登录 | 立即加入

本版积分规则

现在加入蓝光电影网,注册一个账号
上个主题 下个主题 快速回复 收藏帖子 返回列表 客服中心 搜索

手机版|小黑屋| 蓝光电影网 |网站地图 

Copyright © 2015-2019 Comsenz Inc.  Template by 蓝光电影论坛 All Rights Reserved.

Powered by 蓝光电影网 X3.4

特别声明:本站所有资源均由网上收集而来,版权归原影音公司所有,如果侵犯了你的权益,请通知我们,我们会及时删除侵权内容.

快速回复 返回顶部 返回列表