找回密码

蓝光电影网

查看: 1306|回复: 24

雪人奇缘 Abominable.2019.1080p.3D.BluRay.Half-OU.x264.TrueHD.7.1.Atmos-FGT 13.39GB

[复制链接]

 成长值: 26200

发表于 2019-12-19 21:31:14 | 显示全部楼层 |阅读模式
雪人奇缘 Abominable.2019.1080p.3D.BluRay.Half-OU.x264.TrueHD.7.1.Atmos-FGT 13.39GB-1.png

译  名 雪人奇缘 / Everest / 坏坏萌雪怪(台) / 珠穆朗玛 / 长毛雪宝(港)
片  名 Abominable
年  代 2019
产  地 美国 / 中国大陆
类  别 喜剧 / 动画 / 冒险
语  言 英语
上映日期 2019-09-07(多伦多电影节) / 2019-09-27(美国) / 2019-10-01(中国大陆)
IMDb评分  7.1/10 from 6969 users
IMDb链接  https://www.imdb.com/title/tt6324278
豆瓣评分 7.6/10 from 12137 users
豆瓣链接 https://movie.douban.com/subject/26929010/
片  长 97分钟
导  演 吉尔·卡尔顿 Jill Culton / 托德·维尔德曼 Todd Wilderman
编  剧 吉尔·卡尔顿 Jill Culton
主  演 汪可盈 Chloe Bennet
       阿尔伯特·蔡 Albert Tsai
       艾迪·伊扎德 Eddie Izzard
       莎拉·保罗森 Sarah Paulson
       丹增·诺盖·特雷纳 Tenzing Norgay Trainor
       周采芹 Tsai Chin
       张子枫 Zifeng Zhang
       陈飞宇 Feiyu Chen
       何向东 Xiangdong He
       刘风 Feng Liu
       万茜 Qian Wan
       蔡明 Ming Cai


标  签 动画 | 东方梦工厂 | 2019 | 温情 | 冒险 | 美国 | 喜剧 | 中国大陆

简  介  

  珠穆朗玛峰的雪人是传说吗?不是!不仅不是传说,它还拥有令人着迷的魔力!少女小艺在天台上目睹了雪人大毛即将被抓的惨况,决定亲自护送大毛回家,她的小伙伴阿俊和鹏鹏也加入了护送队伍。一路上冒险小分队路经了千岛湖、黄山、乐山大佛等著名的中国景点,雪人大毛为了躲避抓捕者,也逐一展现了自己神奇的魔力。巨大化的蒲公英,一秒变大的蓝莓,油菜花海浪,还有什么是雪人大毛的魔力做不到的?而抓捕者也早已在他们的目的地珠峰等待着冒险小分队步入早已设好的圈套…
  1. Video
  2. ID                                       : 1
  3. Format                                   : AVC
  4. Format/Info                              : Advanced Video Codec
  5. Format profile                           : High@L4
  6. Format settings                          : CABAC / 3 Ref Frames
  7. Format settings, CABAC                   : Yes
  8. Format settings, Reference frames        : 3 frames
  9. Codec ID                                 : V_MPEG4/ISO/AVC
  10. Duration                                 : 1 h 37 min
  11. Bit rate                                 : 16.0 Mb/s
  12. Width                                    : 1 920 pixels
  13. Height                                   : 1 080 pixels
  14. Display aspect ratio                     : 16:9
  15. Frame rate mode                          : Constant
  16. Frame rate                               : 23.976 (24000/1001) FPS
  17. Color space                              : YUV
  18. Chroma subsampling                       : 4:2:0
  19. Bit depth                                : 8 bits
  20. Scan type                                : Progressive
  21. Bits/(Pixel*Frame)                       : 0.322
  22. Stream size                              : 10.8 GiB (81%)
  23. Title                                    : Abominable.2019.1080p.3D.BluRay.Half-OU.x264.TrueHD.7.1.Atmos-FGT
  24. Writing library                          : x264 core 148
  25. Encoding settings                        : cabac=1 / ref=3 / deblock=1:-1:-1 / analyse=0x3:0 / me=hex / subme=5 / psy=1 / psy_rd=1.00:0.00 / mixed_ref=0 / me_range=16 / chroma_me=1 / trellis=1 / 8x8dct=1 / cqm=0 / deadzone=21,11 / fast_pskip=0 / chroma_qp_offset=0 / threads=24 / lookahead_threads=6 / sliced_threads=0 / nr=0 / decimate=1 / interlaced=0 / bluray_compat=0 / constrained_intra=0 / bframes=2 / b_pyramid=0 / b_adapt=1 / b_bias=0 / direct=1 / weightb=0 / open_gop=0 / weightp=0 / keyint=24 / keyint_min=2 / scenecut=40 / intra_refresh=0 / rc=abr / mbtree=0 / bitrate=16000 / ratetol=1.0 / qcomp=0.60 / qpmin=0 / qpmax=69 / qpstep=4 / ip_ratio=1.40 / pb_ratio=1.30 / aq=1:1.00
  26. Default                                  : Yes
  27. Forced                                   : No
  28. Color range                              : Limited
  29. Color primaries                          : BT.709
  30. Transfer characteristics                 : BT.709
  31. Matrix coefficients                      : BT.709

  32. Audio #1
  33. ID                                       : 2
  34. Format                                   : MLP FBA 16-ch
  35. Format/Info                              : Meridian Lossless Packing FBA with 16-channel presentation
  36. Commercial name                          : Dolby TrueHD with Dolby Atmos
  37. Codec ID                                 : A_TRUEHD
  38. Duration                                 : 1 h 37 min
  39. Bit rate mode                            : Variable
  40. Bit rate                                 : 3 049 kb/s
  41. Maximum bit rate                         : 4 824 kb/s
  42. Channel(s)                               : 8 channels
  43. Channel layout                           : L R C LFE Ls Rs Lb Rb
  44. Sampling rate                            : 48.0 kHz
  45. Frame rate                               : 1 200.000 FPS (40 SPF)
  46. Compression mode                         : Lossless
  47. Stream size                              : 2.07 GiB (15%)
  48. Title                                    : Abominable.2019.1080p.3D.BluRay.Half-OU.x264.TrueHD.7.1.Atmos-FGT
  49. Language                                 : English
  50. Default                                  : Yes
  51. Forced                                   : No
  52. Number of dynamic objects                : 11
  53. Bed channel count                        : 1 channel
  54. Bed channel configuration                : LFE

  55. Audio #2
  56. ID                                       : 3
  57. Format                                   : AC-3
  58. Format/Info                              : Audio Coding 3
  59. Commercial name                          : Dolby Digital
  60. Codec ID                                 : A_AC3
  61. Duration                                 : 1 h 37 min
  62. Bit rate mode                            : Constant
  63. Bit rate                                 : 192 kb/s
  64. Channel(s)                               : 2 channels
  65. Channel layout                           : L R
  66. Sampling rate                            : 48.0 kHz
  67. Frame rate                               : 31.250 FPS (1536 SPF)
  68. Bit depth                                : 16 bits
  69. Compression mode                         : Lossy
  70. Stream size                              : 134 MiB (1%)
  71. Title                                    : Abominable.2019.1080p.3D.BluRay.Half-OU.x264.TrueHD.7.1.Atmos-FGT
  72. Language                                 : English
  73. Service kind                             : Complete Main
  74. Default                                  : No
  75. Forced                                   : No

  76. Audio #3
  77. ID                                       : 4
  78. Format                                   : AC-3
  79. Format/Info                              : Audio Coding 3
  80. Commercial name                          : Dolby Digital
  81. Codec ID                                 : A_AC3
  82. Duration                                 : 1 h 37 min
  83. Bit rate mode                            : Constant
  84. Bit rate                                 : 448 kb/s
  85. Channel(s)                               : 6 channels
  86. Channel layout                           : L R C LFE Ls Rs
  87. Sampling rate                            : 48.0 kHz
  88. Frame rate                               : 31.250 FPS (1536 SPF)
  89. Bit depth                                : 16 bits
  90. Compression mode                         : Lossy
  91. Stream size                              : 311 MiB (2%)
  92. Title                                    : Abominable.2019.1080p.3D.BluRay.Half-OU.x264.TrueHD.7.1.Atmos-FGT
  93. Language                                 : English
  94. Service kind                             : Complete Main
  95. Default                                  : No
  96. Forced                                   : No

  97. Text
  98. ID                                       : 5
  99. Format                                   : PGS
  100. Muxing mode                              : zlib
  101. Codec ID                                 : S_HDMV/PGS
  102. Codec ID/Info                            : Picture based subtitle format used on BDs/HD-DVDs
  103. Duration                                 : 1 h 35 min
  104. Bit rate                                 : 49.5 kb/s
  105. Count of elements                        : 3098
  106. Stream size                              : 33.9 MiB (0%)
  107. Title                                    : English-PGS
  108. Language                                 : English
  109. Default                                  : Yes
  110. Forced                                   : No

  111. Menu
  112. 00:00:00.000                             : en:Chapter 01
  113. 00:04:11.542                             : en:Chapter 02
  114. 00:09:10.883                             : en:Chapter 03
  115. 00:13:42.238                             : en:Chapter 04
  116. 00:16:13.597                             : en:Chapter 05
  117. 00:21:34.668                             : en:Chapter 06
  118. 00:25:02.459                             : en:Chapter 07
  119. 00:29:30.435                             : en:Chapter 08
  120. 00:33:57.452                             : en:Chapter 09
  121. 00:36:43.618                             : en:Chapter 10
  122. 00:41:53.511                             : en:Chapter 11
  123. 00:46:30.412                             : en:Chapter 12
  124. 00:50:42.205                             : en:Chapter 13
  125. 00:56:31.221                             : en:Chapter 14
  126. 01:01:40.530                             : en:Chapter 15
  127. 01:06:32.947                             : en:Chapter 16
  128. 01:11:44.341                             : en:Chapter 17
  129. 01:15:26.355                             : en:Chapter 18
  130. 01:20:41.545                             : en:Chapter 19
  131. 01:26:44.407                             : en:Chapter 20
复制代码

雪人奇缘 Abominable.2019.1080p.3D.BluRay.Half-OU.x264.TrueHD.7.1.Atmos-FGT 13.39GB-2.png 雪人奇缘 Abominable.2019.1080p.3D.BluRay.Half-OU.x264.TrueHD.7.1.Atmos-FGT 13.39GB-3.png 雪人奇缘 Abominable.2019.1080p.3D.BluRay.Half-OU.x264.TrueHD.7.1.Atmos-FGT 13.39GB-4.png







回复

使用道具 举报

发表于 2019-12-20 10:45:19 | 显示全部楼层

这东西我收了!谢谢楼主!蓝光电影网真好!
回复 支持 反对

使用道具 举报

发表于 2019-12-20 10:46:36 | 显示全部楼层


这东西我收了!谢谢楼主!蓝光电影网真好!
回复 支持 反对

使用道具 举报

发表于 2019-12-20 11:56:26 | 显示全部楼层
多谢分享:handshake
回复

使用道具 举报

发表于 2019-12-21 18:28:54 | 显示全部楼层
多谢分享:hug::handshake
回复

使用道具 举报

 成长值: 3000

发表于 2019-12-22 20:01:26 | 显示全部楼层
谢谢楼主无私分享。
回复 支持 反对

使用道具 举报

 成长值: 3000

发表于 2019-12-22 20:01:32 | 显示全部楼层
谢谢楼主无私分享。
回复 支持 反对

使用道具 举报

发表于 2019-12-27 05:44:56 | 显示全部楼层
楼主发贴辛苦了,谢谢楼主分享!我觉得蓝光电影网是注册对了!
回复 支持 反对

使用道具 举报

发表于 2020-1-8 17:22:09 | 显示全部楼层
楼主发贴辛苦了,谢谢楼主分享!我觉得蓝光电影网是注册对了!
回复 支持 反对

使用道具 举报

发表于 2020-1-11 02:22:31 | 显示全部楼层
救僵清道夫
回复 支持 反对

使用道具 举报

懒得打字嘛,点击右侧快捷回复 【右侧内容,后台自定义】
您需要登录后才可以回帖 登录 | 立即加入

本版积分规则

现在加入蓝光电影网,注册一个账号
上个主题 下个主题 快速回复 收藏帖子 返回列表 客服中心 搜索

手机版|小黑屋| 蓝光电影网 |网站地图 

Copyright © 2015-2019 Comsenz Inc.  Template by 蓝光电影论坛 All Rights Reserved.

Powered by 蓝光电影网 X3.4

特别声明:本站所有资源均由网上收集而来,版权归原影音公司所有,如果侵犯了你的权益,请通知我们,我们会及时删除侵权内容.

快速回复 返回顶部 返回列表