找回密码

蓝光电影网

查看: 91|回复: 6

[科幻] 怪兽王哥斯拉 Godzilla.King.of.the.Monsters.1956.Criterion.1080p.BluRay.x264-JRP 7.66GB

[复制链接]

 成长值: 23575

发表于 2019-12-2 23:17:13 | 显示全部楼层 |阅读模式
怪兽王哥斯拉 Godzilla.King.of.the.Monsters.1956.Criterion.1080p.BluRay.x264-JRP 7.66GB-1.png

译  名 怪兽王哥斯拉
片  名 Godzilla, King of the Monsters!
年  代 1956
产  地 美国 / 日本
类  别 动作 / 科幻 / 恐怖
语  言 英语 / 日语
上映日期 1956-04-27
IMDb评分  6.6/10 from 6263 users
IMDb链接  http://www.imdb.com/title/tt0197521
豆瓣评分 5.8/10 from 246 users
豆瓣链接 https://movie.douban.com/subject/1294095/
片  长 80 分钟(original U.S. theatrical release version)
导  演 本多猪四郎  Ishir? Honda / Terry O. Morse
编  剧 Al C. Ward / 本多猪四郎  Ishir? Honda / 香山滋 Shigeru Kayama
主  演 雷蒙德·布尔 Raymond Burr
      志村乔 Takashi Shimura
      宝田明 Akira Takarada
      平田昭彦 Akihiko Hirata
      小川虎之助 Toranosuke Ogawa
      Toyoaki Suzuki


标  签 日本 | 科幻 | 哥斯拉 | 本多猪四郎 | 美国 | 日本电影 | 1950s | 美国电影

简  介  

  来自美国《世界新闻》报社的记者斯蒂芬·马丁(雷蒙德·波尔 Raymond Burr 饰)乘飞机前往开罗,在东京转机期间却遭遇令他永生难忘的事情。日本方面一艘打捞船突然与陆地失去联系,前往救援的船只也不幸遇难。从幸存者的口中世人得知,这些遇难船遭到了恐怖的怪物哥斯拉的袭击。著名古生物学家山根京平博士对遭遇袭击的大户岛进行勘查,证实哥斯拉实为两百万年前侏罗纪时代存活下来的恐龙,由于受到原子弹的辐射和氢弹试验的影响而发生突变,并重现人间。人类面临空前的灾难,斯蒂芬成为了这场灾难的见证者……
本片根据香山滋的科幻小说改编,该版本为美国重新剪辑并在国内公映的版本。

  1. Video
  2. ID                                       : 1
  3. Format                                   : AVC
  4. Format/Info                              : Advanced Video Codec
  5. Format profile                           : [email protected]
  6. Format settings                          : CABAC / 4 Ref Frames
  7. Format settings, CABAC                   : Yes
  8. Format settings, Reference frames        : 4 frames
  9. Codec ID                                 : V_MPEG4/ISO/AVC
  10. Duration                                 : 1 h 21 min
  11. Bit rate                                 : 13.0 Mb/s
  12. Width                                    : 1 488 pixels
  13. Height                                   : 1 080 pixels
  14. Display aspect ratio                     : 1.378
  15. Frame rate mode                          : Constant
  16. Frame rate                               : 23.976 FPS
  17. Color space                              : YUV
  18. Chroma subsampling                       : 4:2:0
  19. Bit depth                                : 8 bits
  20. Scan type                                : Progressive
  21. Bits/(Pixel*Frame)                       : 0.338
  22. Stream size                              : 7.37 GiB (96%)
  23. Writing library                          : x264 core 158 r2984 3759fcb
  24. Encoding settings                        : cabac=1 / ref=4 / deblock=1:0:0 / analyse=0x3:0x133 / me=umh / subme=7 / psy=1 / psy_rd=1.00:0.00 / mixed_ref=1 / me_range=16 / chroma_me=1 / trellis=2 / 8x8dct=1 / cqm=0 / deadzone=21,11 / fast_pskip=0 / chroma_qp_offset=-2 / threads=12 / lookahead_threads=2 / sliced_threads=0 / nr=0 / decimate=1 / interlaced=0 / bluray_compat=0 / constrained_intra=0 / bframes=3 / b_pyramid=2 / b_adapt=1 / b_bias=0 / direct=3 / weightb=1 / open_gop=0 / weightp=2 / keyint=250 / keyint_min=23 / scenecut=40 / intra_refresh=0 / rc_lookahead=50 / rc=2pass / mbtree=1 / bitrate=13016 / ratetol=1.0 / qcomp=0.60 / qpmin=0 / qpmax=69 / qpstep=4 / cplxblur=20.0 / qblur=0.5 / ip_ratio=1.40 / aq=1:1.00
  25. Language                                 : Japanese
  26. Default                                  : Yes
  27. Forced                                   : No

  28. Audio
  29. ID                                       : 2
  30. Format                                   : FLAC
  31. Format/Info                              : Free Lossless Audio Codec
  32. Codec ID                                 : A_FLAC
  33. Duration                                 : 1 h 21 min
  34. Bit rate mode                            : Variable
  35. Bit rate                                 : 511 kb/s
  36. Channel(s)                               : 1 channel
  37. Channel layout                           : C
  38. Sampling rate                            : 48.0 kHz
  39. Frame rate                               : 11.719 FPS (4096 SPF)
  40. Bit depth                                : 24 bits
  41. Compression mode                         : Lossless
  42. Stream size                              : 296 MiB (4%)
  43. Writing library                          : libFLAC 1.3.2 (UTC 2017-01-01)
  44. Language                                 : Japanese
  45. Default                                  : Yes
  46. Forced                                   : No

  47. Text
  48. ID                                       : 3
  49. Format                                   : UTF-8
  50. Codec ID                                 : S_TEXT/UTF8
  51. Codec ID/Info                            : UTF-8 Plain Text
  52. Duration                                 : 1 h 20 min
  53. Bit rate                                 : 42 b/s
  54. Count of elements                        : 665
  55. Stream size                              : 24.7 KiB (0%)
  56. Language                                 : English
  57. Default                                  : Yes
  58. Forced                                   : No

  59. Menu
  60. 00:00:00.000                             : en:Chapter 01
  61. 00:05:12.770                             : en:Chapter 02
  62. 00:06:40.316                             : en:Chapter 03
  63. 00:09:25.523                             : en:Chapter 04
  64. 00:11:53.003                             : en:Chapter 05
  65. 00:14:04.218                             : en:Chapter 06
  66. 00:18:20.474                             : en:Chapter 07
  67. 00:21:28.829                             : en:Chapter 08
  68. 00:25:18.558                             : en:Chapter 09
  69. 00:30:07.013                             : en:Chapter 10
  70. 00:32:08.468                             : en:Chapter 11
  71. 00:33:57.660                             : en:Chapter 12
  72. 00:37:40.925                             : en:Chapter 13
  73. 00:41:21.145                             : en:Chapter 14
  74. 00:45:42.030                             : en:Chapter 15
  75. 00:48:28.196                             : en:Chapter 16
  76. 00:53:57.859                             : en:Chapter 17
  77. 00:59:10.004                             : en:Chapter 18
  78. 01:01:24.764                             : en:Chapter 19
  79. 01:04:58.561                             : en:Chapter 20
  80. 01:11:07.638                             : en:Chapter 21
复制代码

怪兽王哥斯拉 Godzilla.King.of.the.Monsters.1956.Criterion.1080p.BluRay.x264-JRP 7.66GB-2.png







回复

使用道具 举报

发表于 2019-12-3 00:41:10 | 显示全部楼层
Thanks for sharing
回复 支持 反对

使用道具 举报

发表于 2019-12-3 07:47:08 | 显示全部楼层
楼主发贴辛苦了,谢谢楼主分享!我觉得蓝光电影网是注册对了!
回复 支持 反对

使用道具 举报

发表于 2019-12-3 10:11:51 | 显示全部楼层

我看不错噢 谢谢楼主!蓝光电影网越来越好!
回复 支持 反对

使用道具 举报

发表于 2019-12-3 19:27:31 | 显示全部楼层

楼主,我太崇拜你了!我想我是一天也不能离开蓝光电影网
回复 支持 反对

使用道具 举报

发表于 2019-12-3 19:31:30 | 显示全部楼层
楼主发贴辛苦了,谢谢楼主分享!我觉得蓝光电影网是注册对了!
回复 支持 反对

使用道具 举报

发表于 2019-12-3 22:01:26 | 显示全部楼层
感谢楼主的无私分享!楼主发贴辛苦了,谢谢楼主分享!
回复 支持 反对

使用道具 举报

懒得打字嘛,点击右侧快捷回复 【右侧内容,后台自定义】
您需要登录后才可以回帖 登录 | 立即加入

本版积分规则

现在加入蓝光电影网,注册一个账号
上个主题 下个主题 快速回复 收藏帖子 返回列表 客服中心 搜索

QQ| 手机版|小黑屋| 蓝光电影网 |网站地图 

Copyright © 2015-2019 Comsenz Inc.  Template by 蓝光电影论坛 All Rights Reserved.

Powered by 蓝光电影网 X3.4

特别声明:本站所有资源均由网上收集而来,版权归原影音公司所有,如果侵犯了你的权益,请通知我们,我们会及时删除侵权内容.

快速回复 返回顶部 返回列表