找回密码

蓝光电影网

查看: 132|回复: 5

[剧情] 我们无法阻挡 Dare.to.Stop.Us.2018.JAPANESE.1080p.BluRay.x264.DTS-PbK 11.22GB

[复制链接]

 成长值: 23620

发表于 2019-12-2 23:16:27 | 显示全部楼层 |阅读模式
我们无法阻挡 Dare.to.Stop.Us.2018.JAPANESE.1080p.BluRay.x264.DTS-PbK 11.22GB-1.png

译  名 我们无法阻挡 / Dare to Stop Us / 若松独立Go Go Go(港)
片  名 止められるか、俺たちを
年  代 2018
产  地 日本
类  别 剧情
语  言 日语
上映日期 2018-10-05(釜山电影节) / 2018-10-13(日本)
IMDb评分  6.4/10 from 51 users
IMDb链接  https://www.imdb.com/title/tt8764582
豆瓣评分 6.8/10 from 420 users
豆瓣链接 https://movie.douban.com/subject/30186498/
片  长 119分钟
导  演 白石和弥 Kazuya Shiraishi
编  剧 井上淳一
主  演 门胁麦 Mugi Kadowaki
       井浦新 ARATA
       满岛真之介 Shin'nosuke Mitsushima
       涩川清彦 Kiyohiko Shibukawa
       音尾琢真 Takuma Otoo
       高冈奏辅 Sosuke Takaoka
       高良健吾 Kengo Kora
       寺岛忍 Shinobu Terajima
       奥田瑛二 Eiji Okuda


标  签 日本 | 日本电影 | 2018 | 门胁麦 | 白石和弥 | 井浦新 | 剧情 | 日影

简  介  

  1969年,33岁的未来名监督 若松孝二(井浦新),热衷于粉红电影的制作,此时,一位少女(麦)敲开了若松制作公司的门,两人开始一起製作电影,青春、电影,还有爱情,一出青春群像剧就此展开。

获奖情况  

  第61届日本电影蓝丝带奖(2019)
  最佳导演 白石和弥
  最佳女主角 门胁麦
  年度十佳日本电影
  1. Video
  2. ID                                       : 1
  3. Format                                   : AVC
  4. Format/Info                              : Advanced Video Codec
  5. Format profile                           : [email protected]
  6. Format settings                          : CABAC / 5 Ref Frames
  7. Format settings, CABAC                   : Yes
  8. Format settings, Reference frames        : 5 frames
  9. Codec ID                                 : V_MPEG4/ISO/AVC
  10. Duration                                 : 1 h 58 min
  11. Bit rate                                 : 12.0 Mb/s
  12. Width                                    : 1 920 pixels
  13. Height                                   : 822 pixels
  14. Display aspect ratio                     : 2.35:1
  15. Frame rate mode                          : Constant
  16. Frame rate                               : 23.976 (24000/1001) FPS
  17. Color space                              : YUV
  18. Chroma subsampling                       : 4:2:0
  19. Bit depth                                : 8 bits
  20. Scan type                                : Progressive
  21. Bits/(Pixel*Frame)                       : 0.317
  22. Stream size                              : 9.74 GiB (87%)
  23. Title                                    : theonlyh
  24. Writing library                          : x264 core 155 r2901 7d0ff22
  25. Encoding settings                        : cabac=1 / ref=5 / deblock=1:-3:-3 / analyse=0x3:0x133 / me=umh / subme=11 / psy=1 / psy_rd=1.00:0.00 / mixed_ref=1 / me_range=64 / chroma_me=1 / trellis=2 / 8x8dct=1 / cqm=0 / deadzone=21,11 / fast_pskip=1 / chroma_qp_offset=-2 / threads=18 / lookahead_threads=3 / sliced_threads=0 / nr=0 / decimate=1 / interlaced=0 / bluray_compat=0 / constrained_intra=0 / bframes=8 / b_pyramid=2 / b_adapt=2 / b_bias=0 / direct=3 / weightb=1 / open_gop=0 / weightp=2 / keyint=240 / keyint_min=24 / scenecut=40 / intra_refresh=0 / rc=2pass / mbtree=0 / bitrate=12000 / ratetol=1.0 / qcomp=0.60 / qpmin=0 / qpmax=69 / qpstep=4 / cplxblur=20.0 / qblur=0.5 / ip_ratio=1.30 / pb_ratio=1.20 / aq=3:0.80
  26. Language                                 : Japanese
  27. Default                                  : Yes
  28. Forced                                   : No
  29. Color range                              : Limited
  30. Color primaries                          : BT.709
  31. Transfer characteristics                 : BT.709
  32. Matrix coefficients                      : BT.709
  33. Statistics Tags Issue                    : mkvmerge v40.0.0 (\'Old Town Road + Pony\') 64-bit 2019-12-01 13:39:06 / mkvmerge v40.0.0 (\'Old Town Road + Pony\') 64-bit 2019-12-01 13:39:06 / UTC 2019-12-01T08:21:52Z
  34. FromStats_BitRate                        : 11986615
  35. FromStats_Duration                       : 01:58:41.239000000
  36. FromStats_FrameCount                     : 170739
  37. FromStats_StreamSize                     : 10669943993

  38. Audio
  39. ID                                       : 2
  40. Format                                   : DTS
  41. Format/Info                              : Digital Theater Systems
  42. Codec ID                                 : A_DTS
  43. Duration                                 : 1 h 58 min
  44. Bit rate mode                            : Constant
  45. Bit rate                                 : 1 509 kb/s
  46. Channel(s)                               : 6 channels
  47. Channel layout                           : C L R Ls Rs LFE
  48. Sampling rate                            : 48.0 kHz
  49. Frame rate                               : 93.750 FPS (512 SPF)
  50. Bit depth                                : 24 bits
  51. Compression mode                         : Lossy
  52. Stream size                              : 1.25 GiB (11%)
  53. Language                                 : Japanese
  54. Default                                  : Yes
  55. Forced                                   : No
  56. Statistics Tags Issue                    : mkvmerge v40.0.0 (\'Old Town Road + Pony\') 64-bit 2019-12-01 13:39:06 / mkvmerge v40.0.0 (\'Old Town Road + Pony\') 64-bit 2019-12-01 13:39:06 / UTC 2019-12-01T08:21:52Z
  57. FromStats_BitRate                        : 1508999
  58. FromStats_Duration                       : 01:58:41.270000000
  59. FromStats_FrameCount                     : 667619
  60. FromStats_StreamSize                     : 1343249428

  61. Text #1
  62. ID                                       : 3
  63. Format                                   : UTF-8
  64. Codec ID                                 : S_TEXT/UTF8
  65. Codec ID/Info                            : UTF-8 Plain Text
  66. Language                                 : English
  67. Default                                  : Yes
  68. Forced                                   : No
  69. Statistics Tags Issue                    : mkvmerge v40.0.0 (\'Old Town Road + Pony\') 64-bit 2019-12-01 13:39:06 / mkvmerge v40.0.0 (\'Old Town Road + Pony\') 64-bit 2019-12-01 13:39:06 / UTC 2019-12-01T08:21:52Z
  70. FromStats_BitRate                        : 42
  71. FromStats_Duration                       : 01:54:36.494000000
  72. FromStats_FrameCount                     : 1424
  73. FromStats_StreamSize                     : 36541

  74. Text #2
  75. ID                                       : 4
  76. Format                                   : PGS
  77. Muxing mode                              : zlib
  78. Codec ID                                 : S_HDMV/PGS
  79. Codec ID/Info                            : Picture based subtitle format used on BDs/HD-DVDs
  80. Language                                 : Chinese
  81. Default                                  : No
  82. Forced                                   : No
  83. Statistics Tags Issue                    : mkvmerge v40.0.0 (\'Old Town Road + Pony\') 64-bit 2019-12-01 13:39:06 / mkvmerge v40.0.0 (\'Old Town Road + Pony\') 64-bit 2019-12-01 13:39:06 / UTC 2019-12-01T08:21:52Z
  84. FromStats_BitRate                        : 33802
  85. FromStats_Duration                       : 01:53:33.181000000
  86. FromStats_FrameCount                     : 2606
  87. FromStats_StreamSize                     : 28788206

  88. Text #3
  89. ID                                       : 5
  90. Format                                   : PGS
  91. Muxing mode                              : zlib
  92. Codec ID                                 : S_HDMV/PGS
  93. Codec ID/Info                            : Picture based subtitle format used on BDs/HD-DVDs
  94. Language                                 : Chinese
  95. Default                                  : No
  96. Forced                                   : No
  97. Statistics Tags Issue                    : mkvmerge v40.0.0 (\'Old Town Road + Pony\') 64-bit 2019-12-01 13:39:06 / mkvmerge v40.0.0 (\'Old Town Road + Pony\') 64-bit 2019-12-01 13:39:06 / UTC 2019-12-01T08:21:52Z
  98. FromStats_BitRate                        : 34034
  99. FromStats_Duration                       : 01:53:33.181000000
  100. FromStats_FrameCount                     : 2606
  101. FromStats_StreamSize                     : 28985315
复制代码

我们无法阻挡 Dare.to.Stop.Us.2018.JAPANESE.1080p.BluRay.x264.DTS-PbK 11.22GB-2.png 我们无法阻挡 Dare.to.Stop.Us.2018.JAPANESE.1080p.BluRay.x264.DTS-PbK 11.22GB-3.png 我们无法阻挡 Dare.to.Stop.Us.2018.JAPANESE.1080p.BluRay.x264.DTS-PbK 11.22GB-4.png







回复

使用道具 举报

发表于 2019-12-2 23:20:17 | 显示全部楼层

楼主太厉害了!楼主,电影应该很好看我觉得蓝光电影网真是个好地方!
回复 支持 反对

使用道具 举报

发表于 2019-12-3 00:42:29 | 显示全部楼层
Thanks for sharing
回复 支持 反对

使用道具 举报

发表于 2019-12-3 07:48:57 | 显示全部楼层
楼主太厉害了!楼主,电影应该很好看我觉得蓝光电影网真是个好地方!
回复 支持 反对

使用道具 举报

发表于 2019-12-3 12:29:07 | 显示全部楼层
楼主发贴辛苦了,谢谢楼主分享!我觉得蓝光电影网是注册对了!
回复 支持 反对

使用道具 举报

发表于 2019-12-3 19:33:17 | 显示全部楼层

感谢楼主的无私分享!要想蓝光电影网好 就靠你我他
回复 支持 反对

使用道具 举报

懒得打字嘛,点击右侧快捷回复 【右侧内容,后台自定义】
您需要登录后才可以回帖 登录 | 立即加入

本版积分规则

现在加入蓝光电影网,注册一个账号
上个主题 下个主题 快速回复 收藏帖子 返回列表 客服中心 搜索

QQ| 手机版|小黑屋| 蓝光电影网 |网站地图 

Copyright © 2015-2019 Comsenz Inc.  Template by 蓝光电影论坛 All Rights Reserved.

Powered by 蓝光电影网 X3.4

特别声明:本站所有资源均由网上收集而来,版权归原影音公司所有,如果侵犯了你的权益,请通知我们,我们会及时删除侵权内容.

快速回复 返回顶部 返回列表