找回密码

蓝光电影网

查看: 102|回复: 8

[喜剧片] 大搜查之女 Lady.Cop.and.Papa.Crook.2008.DC.720p.BluRay.x264-REGRET 4.39GB

[复制链接]

 成长值: 23620

发表于 2019-12-2 23:15:03 | 显示全部楼层 |阅读模式
大搜查之女 Lady.Cop.and.Papa.Crook.2008.DC.720p.BluRay.x264-REGRET 4.39GB-1.png

译  名 Lady Cop & Papa Crook / 大搜查
片  名 大搜查之女
年  代 2008
产  地 中国香港 / 中国大陆
类  别 喜剧 / 惊悚 / 犯罪
语  言 粤语 / 普通话
上映日期 2008-12-24
IMDb评分  5.2/10 from 269 users
IMDb链接  https://www.imdb.com/title/tt1258130
豆瓣评分 5.9/10 from 18728 users
豆瓣链接 https://movie.douban.com/subject/3136488/
片  长 92分钟
导  演 麦兆辉 / 庄文强
编  剧 麦兆辉 / 庄文强
主  演 郑秀文
       陈奕迅
       张国立
       董勇
       杜汶泽
       叶璇
       徐子珊
       刘浩龙
       任贤齐
       陈子聪
       黄德斌
       谭耀文
       谷祖琳


标  签 郑秀文 | 陈奕迅 | 香港电影 | 香港 | 麦兆辉 | 警匪 | 2008 | 电影

简  介  

  33岁还未结婚的香港女警司徒慕莲(郑秀文饰)一直为自己的婚事发愁。男友十年前的承诺,现在成了她与同事间的笑谈。一日,走私集团的头领霍青松(陈奕迅饰)的儿子被绑架,司徒慕莲奉命处理这宗案件。但霍青松一家为避免因走私之事被警方控告,处处表现出不合作的态度,而此时司徒慕莲发现自己有了身孕。
  黑白两道在一间大屋下貌和神离,霍家上下各自心怀暗计,同时,大陆警方也传来了联合破案的消息。作为“剩女”的司徒慕莲、作为警察的司徒慕莲,她到底能否解决眼前面对的一切?
  1. Video
  2. ID                                       : 1
  3. Format                                   : AVC
  4. Format/Info                              : Advanced Video Codec
  5. Format profile                           : [email protected]
  6. Format settings                          : CABAC / 5 Ref Frames
  7. Format settings, CABAC                   : Yes
  8. Format settings, Reference frames        : 5 frames
  9. Codec ID                                 : V_MPEG4/ISO/AVC
  10. Duration                                 : 1 h 38 min
  11. Bit rate                                 : 5 730 kb/s
  12. Width                                    : 1 280 pixels
  13. Height                                   : 720 pixels
  14. Display aspect ratio                     : 16:9
  15. Frame rate mode                          : Constant
  16. Frame rate                               : 24.000 FPS
  17. Color space                              : YUV
  18. Chroma subsampling                       : 4:2:0
  19. Bit depth                                : 8 bits
  20. Scan type                                : Progressive
  21. Bits/(Pixel*Frame)                       : 0.259
  22. Stream size                              : 3.93 GiB (90%)
  23. Writing library                          : x264 core 158 r2988 7817004
  24. Encoding settings                        : cabac=1 / ref=5 / deblock=1:-3:-3 / analyse=0x3:0x133 / me=umh / subme=9 / psy=1 / psy_rd=1.00:0.00 / mixed_ref=1 / me_range=16 / chroma_me=1 / trellis=2 / 8x8dct=1 / cqm=0 / deadzone=21,11 / fast_pskip=0 / chroma_qp_offset=-2 / threads=22 / lookahead_threads=1 / sliced_threads=0 / nr=0 / decimate=1 / interlaced=0 / bluray_compat=0 / constrained_intra=0 / bframes=3 / b_pyramid=2 / b_adapt=1 / b_bias=0 / direct=3 / weightb=1 / open_gop=0 / weightp=2 / keyint=240 / keyint_min=24 / scenecut=40 / intra_refresh=0 / rc_lookahead=50 / rc=2pass / mbtree=1 / bitrate=5730 / ratetol=1.0 / qcomp=0.60 / qpmin=0 / qpmax=69 / qpstep=4 / cplxblur=20.0 / qblur=0.5 / ip_ratio=1.40 / aq=1:1.00
  25. Language                                 : English
  26. Default                                  : Yes
  27. Forced                                   : No

  28. Audio
  29. ID                                       : 2
  30. Format                                   : AC-3
  31. Format/Info                              : Audio Coding 3
  32. Commercial name                          : Dolby Digital
  33. Codec ID                                 : A_AC3
  34. Duration                                 : 1 h 38 min
  35. Bit rate mode                            : Constant
  36. Bit rate                                 : 640 kb/s
  37. Channel(s)                               : 6 channels
  38. Channel layout                           : L R C LFE Ls Rs
  39. Sampling rate                            : 48.0 kHz
  40. Frame rate                               : 31.250 FPS (1536 SPF)
  41. Bit depth                                : 16 bits
  42. Compression mode                         : Lossy
  43. Stream size                              : 450 MiB (10%)
  44. Language                                 : Chinese
  45. Service kind                             : Complete Main
  46. Default                                  : Yes
  47. Forced                                   : No

  48. Text
  49. ID                                       : 3
  50. Format                                   : UTF-8
  51. Codec ID                                 : S_TEXT/UTF8
  52. Codec ID/Info                            : UTF-8 Plain Text
  53. Duration                                 : 1 h 34 min
  54. Bit rate                                 : 44 b/s
  55. Count of elements                        : 1162
  56. Stream size                              : 30.5 KiB (0%)
  57. Title                                    : English Forced
  58. Language                                 : English
  59. Default                                  : Yes
  60. Forced                                   : Yes

  61. Menu
  62. 00:00:00.000                             : en:00:00:00.000
  63. 00:06:34.000                             : en:00:06:34.000
  64. 00:11:44.000                             : en:00:11:44.000
  65. 00:15:12.000                             : en:00:15:12.000
  66. 00:18:30.000                             : en:00:18:30.000
  67. 00:23:42.000                             : en:00:23:42.000
  68. 00:26:16.000                             : en:00:26:16.000
  69. 00:31:00.000                             : en:00:31:00.000
  70. 00:36:48.000                             : en:00:36:48.000
  71. 00:40:53.000                             : en:00:40:53.000
  72. 00:45:48.000                             : en:00:45:48.000
  73. 00:50:18.000                             : en:00:50:18.000
  74. 00:54:44.000                             : en:00:54:44.000
  75. 01:00:49.000                             : en:01:00:49.000
  76. 01:07:13.000                             : en:01:07:13.000
  77. 01:11:05.000                             : en:01:11:05.000
  78. 01:17:30.000                             : en:01:17:30.000
  79. 01:21:55.000                             : en:01:21:55.000
  80. 01:27:50.708                             : en:01:27:50.708
  81. 01:35:26.000                             : en:01:35:26.000
复制代码

大搜查之女 Lady.Cop.and.Papa.Crook.2008.DC.720p.BluRay.x264-REGRET 4.39GB-2.png 大搜查之女 Lady.Cop.and.Papa.Crook.2008.DC.720p.BluRay.x264-REGRET 4.39GB-3.png 大搜查之女 Lady.Cop.and.Papa.Crook.2008.DC.720p.BluRay.x264-REGRET 4.39GB-1.png







回复

使用道具 举报

发表于 2019-12-2 23:21:43 | 显示全部楼层
楼主发贴辛苦了,谢谢楼主分享!我觉得蓝光电影网是注册对了!
回复 支持 反对

使用道具 举报

发表于 2019-12-2 23:34:24 | 显示全部楼层
中国机长 720p 出来了,怎么没更新?
回复 支持 反对

使用道具 举报

发表于 2019-12-3 11:29:19 | 显示全部楼层
我看不错噢 谢谢楼主!蓝光电影网越来越好!
回复 支持 反对

使用道具 举报

发表于 2019-12-3 11:45:10 | 显示全部楼层
楼主发贴辛苦了,谢谢楼主分享!我觉得蓝光电影网是注册对了!
回复 支持 反对

使用道具 举报

发表于 2019-12-3 11:46:20 | 显示全部楼层
楼主发贴辛苦了,谢谢楼主分享!我觉得蓝光电影网是注册对了!
回复 支持 反对

使用道具 举报

发表于 2019-12-3 12:18:43 | 显示全部楼层
谢谢分享
回复

使用道具 举报

发表于 2019-12-4 17:42:04 | 显示全部楼层

我看不错噢 谢谢楼主!蓝光电影网越来越好!
回复 支持 反对

使用道具 举报

发表于 2019-12-4 17:52:44 | 显示全部楼层
好久没见郑秀文了

回复 支持 反对

使用道具 举报

懒得打字嘛,点击右侧快捷回复 【右侧内容,后台自定义】
您需要登录后才可以回帖 登录 | 立即加入

本版积分规则

现在加入蓝光电影网,注册一个账号
上个主题 下个主题 快速回复 收藏帖子 返回列表 客服中心 搜索

QQ| 手机版|小黑屋| 蓝光电影网 |网站地图 

Copyright © 2015-2019 Comsenz Inc.  Template by 蓝光电影论坛 All Rights Reserved.

Powered by 蓝光电影网 X3.4

特别声明:本站所有资源均由网上收集而来,版权归原影音公司所有,如果侵犯了你的权益,请通知我们,我们会及时删除侵权内容.

快速回复 返回顶部 返回列表