找回密码

蓝光电影网

查看: 306|回复: 7

[动作] 流氓战争 Rogue.Warfare.2019.1080p.BluRay.x264.DTS-FGT 8.83GB

[复制链接]

 成长值: 23215

发表于 7 天前 | 显示全部楼层 |阅读模式
流氓战争 Rogue.Warfare.2019.1080p.BluRay.x264.DTS-FGT 8.83GB-1.png

译  名 流氓战争
片  名 Rogue Warfare
年  代 2017
产  地 美国
类  别 动作
语  言 英语
IMDb链接  http://www.imdb.com/title/tt5266668
豆瓣评分 0/10 from 0 users
豆瓣链接 https://movie.douban.com/subject/26992379/
导  演 麦克·冈瑟 Mike Gunther
编  剧 Sean Day Michael / Andrew Emilio DeCesare
主  演 姜成镐 Sung Kang
       Kenny Sheard
       Mike McKee


标  签 动作

简  介  

  A group of military elite from the U.S., Russia, UK, China and France join forces to fight an elite underground terrorist network.
  1. Video
  2. ID                                       : 1
  3. Format                                   : AVC
  4. Format/Info                              : Advanced Video Codec
  5. Format profile                           : High@L4
  6. Format settings                          : CABAC / 4 Ref Frames
  7. Format settings, CABAC                   : Yes
  8. Format settings, Reference frames        : 4 frames
  9. Codec ID                                 : V_MPEG4/ISO/AVC
  10. Duration                                 : 1 h 43 min
  11. Bit rate                                 : 11.5 Mb/s
  12. Width                                    : 1 920 pixels
  13. Height                                   : 804 pixels
  14. Display aspect ratio                     : 2.40:1
  15. Frame rate mode                          : Constant
  16. Frame rate                               : 23.976 (24000/1001) FPS
  17. Color space                              : YUV
  18. Chroma subsampling                       : 4:2:0
  19. Bit depth                                : 8 bits
  20. Scan type                                : Progressive
  21. Bits/(Pixel*Frame)                       : 0.311
  22. Stream size                              : 8.28 GiB (94%)
  23. Title                                    : Rogue.Warfare.2019.1080p.BluRay.x264.DTS-FGT
  24. Writing library                          : x264 core 148 r2795M aaa9aa8
  25. Encoding settings                        : cabac=1 / ref=4 / deblock=1:-2:-2 / analyse=0x3:0x113 / me=umh / subme=9 / psy=1 / psy_rd=1.00:0.15 / mixed_ref=1 / me_range=16 / chroma_me=1 / trellis=2 / 8x8dct=1 / cqm=0 / deadzone=21,11 / fast_pskip=1 / chroma_qp_offset=-3 / threads=72 / lookahead_threads=3 / sliced_threads=0 / nr=0 / decimate=1 / interlaced=0 / bluray_compat=0 / constrained_intra=0 / bframes=3 / b_pyramid=2 / b_adapt=1 / b_bias=0 / direct=3 / weightb=1 / open_gop=0 / weightp=2 / keyint=250 / keyint_min=25 / scenecut=40 / intra_refresh=0 / rc_lookahead=50 / rc=2pass / mbtree=1 / bitrate=11500 / ratetol=1.0 / qcomp=0.60 / qpmin=0 / qpmax=69 / qpstep=4 / cplxblur=20.0 / qblur=0.5 / vbv_maxrate=31250 / vbv_bufsize=31250 / nal_hrd=none / filler=0 / ip_ratio=1.40 / aq=1:1.00
  26. Language                                 : English
  27. Default                                  : Yes
  28. Forced                                   : No

  29. Audio
  30. ID                                       : 2
  31. Format                                   : DTS
  32. Format/Info                              : Digital Theater Systems
  33. Codec ID                                 : A_DTS
  34. Duration                                 : 1 h 43 min
  35. Bit rate mode                            : Constant
  36. Bit rate                                 : 768 kb/s
  37. Channel(s)                               : 6 channels
  38. Channel layout                           : C L R Ls Rs LFE
  39. Sampling rate                            : 48.0 kHz
  40. Frame rate                               : 93.750 FPS (512 SPF)
  41. Bit depth                                : 16 bits
  42. Compression mode                         : Lossy
  43. Stream size                              : 566 MiB (6%)
  44. Title                                    : Rogue.Warfare.2019.1080p.BluRay.x264.DTS-FGT
  45. Language                                 : English
  46. Default                                  : Yes
  47. Forced                                   : No

  48. Menu
  49. 00:00:00.000                             : en:Chapter 01
  50. 00:04:04.035                             : en:Chapter 02
  51. 00:13:15.294                             : en:Chapter 03
  52. 00:19:40.637                             : en:Chapter 04
  53. 00:32:13.097                             : en:Chapter 05
  54. 00:44:34.713                             : en:Chapter 06
  55. 00:49:37.557                             : en:Chapter 07
  56. 00:57:14.305                             : en:Chapter 08
  57. 01:01:21.594                             : en:Chapter 09
  58. 01:13:10.219                             : en:Chapter 10
  59. 01:24:46.915                             : en:Chapter 11
  60. 01:34:12.063                             : en:Chapter 12
复制代码

流氓战争 Rogue.Warfare.2019.1080p.BluRay.x264.DTS-FGT 8.83GB-2.png 093815r17raq889obacc7o.png 流氓战争 Rogue.Warfare.2019.1080p.BluRay.x264.DTS-FGT 8.83GB-4.png







回复

使用道具 举报

发表于 7 天前 | 显示全部楼层
打着反恐的旗号,推广所谓普世价值,结果,水土不服,自然药丸……
回复 支持 反对

使用道具 举报

 成长值: 1010

发表于 7 天前 | 显示全部楼层
谢谢楼主无私分享。
回复 支持 反对

使用道具 举报

发表于 6 天前 | 显示全部楼层
谢谢楼主无私分享。
回复 支持 反对

使用道具 举报

发表于 6 天前 | 显示全部楼层

楼主太厉害了!楼主,电影应该很好看我觉得蓝光电影网真是个好地方!
回复 支持 反对

使用道具 举报

发表于 4 天前 | 显示全部楼层

楼主,我太崇拜你了!我想我是一天也不能离开蓝光电影网
回复 支持 反对

使用道具 举报

发表于 3 天前 | 显示全部楼层
楼主,我太崇拜你了!我想我是一天也不能离开蓝光电影网。
回复 支持 反对

使用道具 举报

发表于 3 天前 | 显示全部楼层

这个帖子不回对不起自己!我想我是一天也不能离开蓝光电影网
回复 支持 反对

使用道具 举报

懒得打字嘛,点击右侧快捷回复 【右侧内容,后台自定义】
您需要登录后才可以回帖 登录 | 立即加入

本版积分规则

现在加入蓝光电影网,注册一个账号

QQ| 手机版|小黑屋| 蓝光电影网 |网站地图

Copyright © 2015-2019 Comsenz Inc.  Template by 蓝光电影论坛 All Rights Reserved.

Powered by 蓝光电影网 X3.4

特别声明:本站所有资源均由网上收集而来,版权归原影音公司所有,如果侵犯了你的权益,请通知我们,我们会及时删除侵权内容.

快速回复 返回顶部 返回列表