找回密码

蓝光电影网

查看: 86|回复: 4

[喜剧] 闯入逃离/打破与退出 Breaking.And.Exiting.2018.1080p.BluRay.x264.DTS-ISm 7.03GB

[复制链接]

 成长值: 23215

发表于 7 天前 | 显示全部楼层 |阅读模式
闯入逃离/打破与退出 Breaking.And.Exiting.2018.1080p.BluRay.x264.DTS-ISm 7.03GB-1.png

译  名 闯入逃离 / 打破与退出
片  名 Breaking & Exiting
年  代 2017
产  地 美国
类  别 喜剧
语  言 英语
上映日期 2018-08-17(美国)
IMDb评分  5.6/10 from 1344 users
IMDb链接  https://www.imdb.com/title/tt6285672
豆瓣评分 0/10 from 0 users
豆瓣链接 https://movie.douban.com/subject/26931865/
片  长 78分钟
导  演 彼得·费辛利 Peter Facinelli
编  剧 乔丹·莘森 Jordan Hinson
主  演 Milo Gibson
       乔丹·莘森 Jordan Hinson
       亚当·休伯 Adam Huber
       乔昆姆·德·阿尔梅达 Joaquim de Almeida
       贾斯婷·瓦希伯格 Justine Wachsberger


标  签 美国 | 剧情 | 爱情 | 电影 | [歐美] | PeterFacinelli | 2019 | 2018

简  介  

  哈里,一个迷人的偷房贼,在一次未遂的入室行窃中,当他偶然发现黛西并决定把她从她自己手中救出来时,得到的东西比他讨价还价还多,于是他们两个人进入了一个黑暗的喜剧式的自我发现和爱之旅。
  1. Video
  2. ID                                       : 1
  3. Format                                   : AVC
  4. Format/Info                              : Advanced Video Codec
  5. Format profile                           : High@L4
  6. Format settings                          : CABAC / 4 Ref Frames
  7. Format settings, CABAC                   : Yes
  8. Format settings, Reference frames        : 4 frames
  9. Codec ID                                 : V_MPEG4/ISO/AVC
  10. Duration                                 : 1 h 18 min
  11. Bit rate                                 : 11.3 Mb/s
  12. Width                                    : 1 920 pixels
  13. Height                                   : 800 pixels
  14. Display aspect ratio                     : 2.40:1
  15. Frame rate mode                          : Constant
  16. Frame rate                               : 23.976 (23976/1000) FPS
  17. Color space                              : YUV
  18. Chroma subsampling                       : 4:2:0
  19. Bit depth                                : 8 bits
  20. Scan type                                : Progressive
  21. Bits/(Pixel*Frame)                       : 0.307
  22. Stream size                              : 6.20 GiB (88%)
  23. Writing library                          : x264 core 148 r2643 5c65704
  24. Encoding settings                        : cabac=1 / ref=4 / deblock=1:-3:-3 / analyse=0x3:0x133 / me=umh / subme=11 / psy=1 / psy_rd=1.05:0.00 / mixed_ref=1 / me_range=32 / chroma_me=1 / trellis=2 / 8x8dct=1 / cqm=0 / deadzone=21,11 / fast_pskip=0 / chroma_qp_offset=-2 / threads=12 / lookahead_threads=2 / sliced_threads=0 / nr=0 / decimate=0 / interlaced=0 / bluray_compat=0 / constrained_intra=0 / bframes=8 / b_pyramid=2 / b_adapt=2 / b_bias=0 / direct=3 / weightb=1 / open_gop=0 / weightp=2 / keyint=250 / keyint_min=23 / scenecut=40 / intra_refresh=0 / rc_lookahead=50 / rc=2pass / mbtree=0 / bitrate=11318 / ratetol=1.0 / qcomp=0.60 / qpmin=0 / qpmax=69 / qpstep=4 / cplxblur=20.0 / qblur=0.5 / vbv_maxrate=50000 / vbv_bufsize=62500 / nal_hrd=none / filler=0 / ip_ratio=1.30 / pb_ratio=1.20 / aq=1:0.75
  25. Language                                 : English
  26. Default                                  : Yes
  27. Forced                                   : No

  28. Audio
  29. ID                                       : 2
  30. Format                                   : DTS
  31. Format/Info                              : Digital Theater Systems
  32. Codec ID                                 : A_DTS
  33. Duration                                 : 1 h 18 min
  34. Bit rate mode                            : Constant
  35. Bit rate                                 : 1 509 kb/s
  36. Channel(s)                               : 6 channels
  37. Channel layout                           : C L R Ls Rs LFE
  38. Sampling rate                            : 48.0 kHz
  39. Frame rate                               : 93.750 FPS (512 SPF)
  40. Bit depth                                : 24 bits
  41. Compression mode                         : Lossy
  42. Stream size                              : 847 MiB (12%)
  43. Language                                 : English
  44. Default                                  : Yes
  45. Forced                                   : No

  46. Menu
  47. 00:00:00.000                             : en:Chapter 1
  48. 00:12:12.982                             : en:Chapter 2
  49. 00:21:43.010                             : en:Chapter 3
  50. 00:30:40.005                             : en:Chapter 4
  51. 00:41:21.979                             : en:Chapter 5
  52. 00:51:59.950                             : en:Chapter 6
  53. 01:01:32.981                             : en:Chapter 7
  54. 01:07:52.944                             : en:Chapter 8
  55. 01:12:49.991                             : en:Chapter 9
复制代码

闯入逃离/打破与退出 Breaking.And.Exiting.2018.1080p.BluRay.x264.DTS-ISm 7.03GB-2.png 闯入逃离/打破与退出 Breaking.And.Exiting.2018.1080p.BluRay.x264.DTS-ISm 7.03GB-3.png 闯入逃离/打破与退出 Breaking.And.Exiting.2018.1080p.BluRay.x264.DTS-ISm 7.03GB-4.png







回复

使用道具 举报

发表于 5 天前 | 显示全部楼层
顶一下看看,
回复 支持 反对

使用道具 举报

发表于 5 天前 | 显示全部楼层

这个帖子不回对不起自己!我想我是一天也不能离开蓝光电影网
回复 支持 反对

使用道具 举报

发表于 5 天前 | 显示全部楼层
楼主发贴辛苦了,谢谢楼主分享!我觉得蓝光电影网是注册对了!
回复 支持 反对

使用道具 举报

发表于 5 天前 | 显示全部楼层

这东西我收了!谢谢楼主!蓝光电影网真好!
回复 支持 反对

使用道具 举报

懒得打字嘛,点击右侧快捷回复 【右侧内容,后台自定义】
您需要登录后才可以回帖 登录 | 立即加入

本版积分规则

现在加入蓝光电影网,注册一个账号

QQ| 手机版|小黑屋| 蓝光电影网 |网站地图

Copyright © 2015-2019 Comsenz Inc.  Template by 蓝光电影论坛 All Rights Reserved.

Powered by 蓝光电影网 X3.4

特别声明:本站所有资源均由网上收集而来,版权归原影音公司所有,如果侵犯了你的权益,请通知我们,我们会及时删除侵权内容.

快速回复 返回顶部 返回列表