找回密码

蓝光电影网

查看: 124|回复: 5

[剧情] 亲切的金子 Lady.Vengeance.2005.ARROW.KOREAN.1080p.BluRay.x264.DTS-FGT 9.87GB

[复制链接]

 成长值: 23215

发表于 2019-11-10 22:51:35 | 显示全部楼层 |阅读模式
亲切的金子 Lady.Vengeance.2005.ARROW.KOREAN.1080p.BluRay.x264.DTS-FGT 9.87GB-1.png

译  名 亲切的金子 / Sympathy for Lady Vengeance / 复仇的金子
片  名 ??? ???
年  代 2005
产  地 韩国
类  别 剧情 / 惊悚 / 犯罪
语  言 韩语 / 英语 / 日语
上映日期 2005-07-29(韩国)
IMDb评分  7.6/10 from 65930 users
IMDb链接  https://www.imdb.com/title/tt0451094
豆瓣评分 7.6/10 from 107808 users
豆瓣链接 https://movie.douban.com/subject/1412579/
片  长 115分钟
导  演 朴赞郁 Chan-wook Park
编  剧 郑瑞景 Seo-Gyeong Jeong / 朴赞郁 Chan-wook Park
主  演 李英爱 Yeong-ae Lee
       崔岷植 Min-sik Choi
       吴达洙 Dal-su Oh
       金时厚 Shi-hoo Kim
       金秉玉 Byeong-ok Kim
       崔政宇 Jung-woo Choi


标  签 韩国 | 朴赞郁 | 复仇 | 李英爱 | 韩国电影 | 暴力 | 犯罪 | 剧情

简  介  

  金子(李英爱饰)20岁时,就因被控“诱拐儿童”入狱而成为头条新闻,人们惊诧于她的美貌、她的年轻。
  在13年的牢狱生活中,有着天使般容貌的她是狱中绝对的模范。金子尽心尽力地帮助身边的每一个人,因此狱友们都称她为“亲切的金子”。表面上金子似乎比谁都诚实守纪,但内心里的复仇火焰一天也没有熄灭。
  当金子出狱后,她还是马上展开复仇计划——它已经暗中策划准备了13年之久的,而狱友们也都在不同的地方帮助着她。
  金子的仇人是当年让她入狱的白老师(崔岷植饰),那是什么让他们在13年前结怨呢?金子又将怎样复仇呢?能否成功?

获奖情况  

  第62届威尼斯电影节(2005)
  主竞赛单元 金狮奖 (提名) 朴赞郁

  第25届香港电影金像奖(2006)
  最佳亚洲电影(提名)
  1. Video
  2. ID                                       : 1
  3. Format                                   : AVC
  4. Format/Info                              : Advanced Video Codec
  5. Format profile                           : High@L4
  6. Format settings                          : CABAC / 4 Ref Frames
  7. Format settings, CABAC                   : Yes
  8. Format settings, Reference frames        : 4 frames
  9. Codec ID                                 : V_MPEG4/ISO/AVC
  10. Duration                                 : 1 h 55 min
  11. Bit rate                                 : 11.5 Mb/s
  12. Width                                    : 1 920 pixels
  13. Height                                   : 816 pixels
  14. Display aspect ratio                     : 2.35:1
  15. Frame rate mode                          : Constant
  16. Frame rate                               : 23.976 (24000/1001) FPS
  17. Color space                              : YUV
  18. Chroma subsampling                       : 4:2:0
  19. Bit depth                                : 8 bits
  20. Scan type                                : Progressive
  21. Bits/(Pixel*Frame)                       : 0.306
  22. Stream size                              : 9.25 GiB (94%)
  23. Title                                    : Lady.Vengeance.2005.ARROW.KOREAN.1080p.BluRay.x264.DTS-FGT
  24. Writing library                          : x264 core 148 r2748 97eaef2
  25. Encoding settings                        : cabac=1 / ref=4 / deblock=1:-2:-2 / analyse=0x3:0x113 / me=umh / subme=9 / psy=1 / psy_rd=1.00:0.15 / mixed_ref=1 / me_range=16 / chroma_me=1 / trellis=2 / 8x8dct=1 / cqm=0 / deadzone=21,11 / fast_pskip=1 / chroma_qp_offset=-3 / threads=24 / lookahead_threads=3 / sliced_threads=0 / nr=0 / decimate=1 / interlaced=0 / bluray_compat=0 / constrained_intra=0 / bframes=3 / b_pyramid=2 / b_adapt=1 / b_bias=0 / direct=3 / weightb=1 / open_gop=0 / weightp=2 / keyint=250 / keyint_min=25 / scenecut=40 / intra_refresh=0 / rc_lookahead=50 / rc=2pass / mbtree=1 / bitrate=11500 / ratetol=1.0 / qcomp=0.60 / qpmin=0 / qpmax=69 / qpstep=4 / cplxblur=20.0 / qblur=0.5 / vbv_maxrate=31250 / vbv_bufsize=31250 / nal_hrd=none / filler=0 / ip_ratio=1.40 / aq=1:1.00
  26. Language                                 : Korean
  27. Default                                  : Yes
  28. Forced                                   : No

  29. Audio
  30. ID                                       : 2
  31. Format                                   : DTS
  32. Format/Info                              : Digital Theater Systems
  33. Codec ID                                 : A_DTS
  34. Duration                                 : 1 h 55 min
  35. Bit rate mode                            : Constant
  36. Bit rate                                 : 768 kb/s
  37. Channel(s)                               : 6 channels
  38. Channel layout                           : C L R Ls Rs LFE
  39. Sampling rate                            : 48.0 kHz
  40. Frame rate                               : 93.750 FPS (512 SPF)
  41. Bit depth                                : 16 bits
  42. Compression mode                         : Lossy
  43. Stream size                              : 632 MiB (6%)
  44. Title                                    : Lady.Vengeance.2005.ARROW.KOREAN.1080p.BluRay.x264.DTS-FGT
  45. Language                                 : Korean
  46. Default                                  : Yes
  47. Forced                                   : No

  48. Text
  49. ID                                       : 3
  50. Format                                   : UTF-8
  51. Codec ID                                 : S_TEXT/UTF8
  52. Codec ID/Info                            : UTF-8 Plain Text
  53. Duration                                 : 1 h 49 min
  54. Bit rate                                 : 25 b/s
  55. Count of elements                        : 630
  56. Stream size                              : 20.5 KiB (0%)
  57. Language                                 : English
  58. Default                                  : Yes
  59. Forced                                   : No

  60. Menu
  61. 00:00:00.000                             : en:Chapter 1
  62. 00:10:10.068                             : en:Chapter 2
  63. 00:20:40.823                             : en:Chapter 3
  64. 00:31:53.537                             : en:Chapter 4
  65. 00:38:15.126                             : en:Chapter 5
  66. 00:46:29.704                             : en:Chapter 6
  67. 00:55:26.198                             : en:Chapter 7
  68. 01:03:10.453                             : en:Chapter 8
  69. 01:16:57.822                             : en:Chapter 9
  70. 01:29:01.336                             : en:Chapter 10
  71. 01:37:01.607                             : en:Chapter 11
  72. 01:46:09.655                             : en:Chapter 12
复制代码

亲切的金子 Lady.Vengeance.2005.ARROW.KOREAN.1080p.BluRay.x264.DTS-FGT 9.87GB-2.png 亲切的金子 Lady.Vengeance.2005.ARROW.KOREAN.1080p.BluRay.x264.DTS-FGT 9.87GB-3.png 亲切的金子 Lady.Vengeance.2005.ARROW.KOREAN.1080p.BluRay.x264.DTS-FGT 9.87GB-4.png







回复

使用道具 举报

发表于 6 天前 | 显示全部楼层
谢谢分享!!!支持了!!!
回复 支持 反对

使用道具 举报

发表于 6 天前 | 显示全部楼层
希望可以下载了
回复 支持 反对

使用道具 举报

发表于 5 天前 | 显示全部楼层

我看不错噢 谢谢楼主!蓝光电影网越来越好!
回复 支持 反对

使用道具 举报

发表于 4 天前 | 显示全部楼层

这东西我收了!谢谢楼主!蓝光电影网真好!
回复 支持 反对

使用道具 举报

发表于 4 天前 | 显示全部楼层
希望可以下载了
回复 支持 反对

使用道具 举报

懒得打字嘛,点击右侧快捷回复 【右侧内容,后台自定义】
您需要登录后才可以回帖 登录 | 立即加入

本版积分规则

现在加入蓝光电影网,注册一个账号

QQ| 手机版|小黑屋| 蓝光电影网 |网站地图

Copyright © 2015-2019 Comsenz Inc.  Template by 蓝光电影论坛 All Rights Reserved.

Powered by 蓝光电影网 X3.4

特别声明:本站所有资源均由网上收集而来,版权归原影音公司所有,如果侵犯了你的权益,请通知我们,我们会及时删除侵权内容.

快速回复 返回顶部 返回列表