找回密码

蓝光电影网

查看: 67|回复: 1

[喜剧] 美丽但贫穷 Belle.Ma.Povere.1957.ITALIAN.1080p.BluRay.x264-HANDJOB 8.11GB

[复制链接]

 成长值: 23215

发表于 2019-11-10 19:02:01 | 显示全部楼层 |阅读模式
美丽但贫穷 Belle.Ma.Povere.1957.ITALIAN.1080p.BluRay.x264-HANDJOB 8.11GB-1.png

译  名 美丽但贫穷 / Poor Girl, Pretty Girl / Pretty But Poor / 贫穷的美女
片  名 Belle ma povere
年  代 1957
产  地 意大利
类  别 喜剧
语  言 意大利语
上映日期 1957
IMDb评分  6.4/10 from 164 users
IMDb链接  https://www.imdb.com/title/tt0050181
豆瓣评分 0/10 from 0 users
豆瓣链接 https://movie.douban.com/subject/5061177/
片  长 Germany: 99 分钟
导  演 迪诺·里西 Dino Risi
编  剧 Pasquale Festa Campanile
主  演 玛丽莎·奥拉西欧 Marisa Allasio
       毛里齐奥·阿雷纳 Maurizio Arena
       雷纳托·萨尔瓦托雷 Renato Salvatori
       洛雷拉·德卢卡 Lorella De Luca
       亚历山德拉·帕纳罗 Alessandra Panaro
       里卡尔多·加罗内 Riccardo Garrone


标  签 意大利电影 | 爱情 | 意大利 | 喜剧 | BDISO | 1957

简  介  

  暂无相关剧情介绍
  1. Video
  2. ID                                       : 1
  3. Format                                   : AVC
  4. Format/Info                              : Advanced Video Codec
  5. Format profile                           : High@L4
  6. Format settings                          : CABAC / 5 Ref Frames
  7. Format settings, CABAC                   : Yes
  8. Format settings, Reference frames        : 5 frames
  9. Codec ID                                 : V_MPEG4/ISO/AVC
  10. Duration                                 : 1 h 38 min
  11. Bit rate                                 : 11.5 Mb/s
  12. Width                                    : 1 480 pixels
  13. Height                                   : 1 080 pixels
  14. Display aspect ratio                     : 1.370
  15. Frame rate mode                          : Constant
  16. Frame rate                               : 24.000 FPS
  17. Color space                              : YUV
  18. Chroma subsampling                       : 4:2:0
  19. Bit depth                                : 8 bits
  20. Scan type                                : Progressive
  21. Bits/(Pixel*Frame)                       : 0.299
  22. Stream size                              : 7.92 GiB (98%)
  23. Writing library                          : x264 core 157 r2935 545de2f
  24. Encoding settings                        : cabac=1 / ref=5 / deblock=1:-3:-3 / analyse=0x3:0x133 / me=umh / subme=10 / psy=1 / psy_rd=1.00:0.00 / mixed_ref=1 / me_range=32 / chroma_me=1 / trellis=2 / 8x8dct=1 / cqm=0 / deadzone=21,11 / fast_pskip=0 / chroma_qp_offset=-2 / threads=18 / lookahead_threads=4 / sliced_threads=0 / nr=0 / decimate=0 / interlaced=0 / bluray_compat=0 / constrained_intra=0 / bframes=16 / b_pyramid=2 / b_adapt=2 / b_bias=0 / direct=3 / weightb=1 / open_gop=0 / weightp=2 / keyint=240 / keyint_min=24 / scenecut=40 / intra_refresh=0 / rc_lookahead=60 / rc=crf / mbtree=0 / crf=19.5 / qcomp=0.60 / qpmin=0 / qpmax=69 / qpstep=4 / vbv_maxrate=62500 / vbv_bufsize=78125 / crf_max=0.0 / nal_hrd=none / filler=0 / ip_ratio=1.40 / pb_ratio=1.30 / aq=2:1.00
  25. Default                                  : Yes
  26. Forced                                   : No
  27. Color range                              : Limited
  28. Color primaries                          : BT.709
  29. Transfer characteristics                 : BT.709
  30. Matrix coefficients                      : BT.709

  31. Audio
  32. ID                                       : 2
  33. Format                                   : FLAC
  34. Format/Info                              : Free Lossless Audio Codec
  35. Codec ID                                 : A_FLAC
  36. Duration                                 : 1 h 38 min
  37. Bit rate mode                            : Variable
  38. Bit rate                                 : 238 kb/s
  39. Channel(s)                               : 2 channels
  40. Channel layout                           : L R
  41. Sampling rate                            : 48.0 kHz
  42. Frame rate                               : 11.719 FPS (4096 SPF)
  43. Bit depth                                : 16 bits
  44. Compression mode                         : Lossless
  45. Stream size                              : 168 MiB (2%)
  46. Writing library                          : libFLAC 1.2.1 (UTC 2007-09-17)
  47. Language                                 : Italian
  48. Default                                  : Yes
  49. Forced                                   : No

  50. Text #1
  51. ID                                       : 3
  52. Format                                   : UTF-8
  53. Codec ID                                 : S_TEXT/UTF8
  54. Codec ID/Info                            : UTF-8 Plain Text
  55. Duration                                 : 1 h 38 min
  56. Bit rate                                 : 86 b/s
  57. Count of elements                        : 2023
  58. Stream size                              : 62.4 KiB (0%)
  59. Language                                 : English
  60. Default                                  : Yes
  61. Forced                                   : No

  62. Text #2
  63. ID                                       : 4
  64. Format                                   : PGS
  65. Muxing mode                              : zlib
  66. Codec ID                                 : S_HDMV/PGS
  67. Codec ID/Info                            : Picture based subtitle format used on BDs/HD-DVDs
  68. Duration                                 : 1 h 38 min
  69. Bit rate                                 : 42.2 kb/s
  70. Count of elements                        : 3720
  71. Stream size                              : 29.7 MiB (0%)
  72. Language                                 : French
  73. Default                                  : No
  74. Forced                                   : No

  75. Text #3
  76. ID                                       : 5
  77. Format                                   : PGS
  78. Muxing mode                              : zlib
  79. Codec ID                                 : S_HDMV/PGS
  80. Codec ID/Info                            : Picture based subtitle format used on BDs/HD-DVDs
  81. Duration                                 : 1 h 38 min
  82. Bit rate                                 : 42.6 kb/s
  83. Count of elements                        : 3644
  84. Stream size                              : 30.1 MiB (0%)
  85. Language                                 : French
  86. Default                                  : No
  87. Forced                                   : No
复制代码

美丽但贫穷 Belle.Ma.Povere.1957.ITALIAN.1080p.BluRay.x264-HANDJOB 8.11GB-2.png 美丽但贫穷 Belle.Ma.Povere.1957.ITALIAN.1080p.BluRay.x264-HANDJOB 8.11GB-3.png 美丽但贫穷 Belle.Ma.Povere.1957.ITALIAN.1080p.BluRay.x264-HANDJOB 8.11GB-4.png







回复

使用道具 举报

发表于 2019-11-10 22:07:16 | 显示全部楼层
没有金币 绑定一下
回复 支持 反对

使用道具 举报

懒得打字嘛,点击右侧快捷回复 【右侧内容,后台自定义】
您需要登录后才可以回帖 登录 | 立即加入

本版积分规则

现在加入蓝光电影网,注册一个账号

QQ| 手机版|小黑屋| 蓝光电影网 |网站地图

Copyright © 2015-2019 Comsenz Inc.  Template by 蓝光电影论坛 All Rights Reserved.

Powered by 蓝光电影网 X3.4

特别声明:本站所有资源均由网上收集而来,版权归原影音公司所有,如果侵犯了你的权益,请通知我们,我们会及时删除侵权内容.

快速回复 返回顶部 返回列表