找回密码

蓝光电影网

查看: 96|回复: 2

[惊悚] 荒野恶林 Manhunt.2008.1080p.BluRay.x264-CULTHD 6.56GB

[复制链接]

 成长值: 23215

发表于 2019-11-10 18:57:06 | 显示全部楼层 |阅读模式
荒野恶林 Manhunt.2008.1080p.BluRay.x264-CULTHD 6.56GB-1.png

译  名 荒野恶林
片  名 Rovdyr
年  代 2008
产  地 挪威
类  别 惊悚 / 恐怖
语  言 挪威语
上映日期 2008-01-04
IMDb评分  5.1/10 from 3802 users
IMDb链接  http://www.imdb.com/title/tt1054115
豆瓣评分 4.7/10 from 555 users
豆瓣链接 https://movie.douban.com/subject/2285485/
片  长 Argentina: 78 分钟
导  演 Patrik Syversen
编  剧 Nini Bull Robsahm / Patrik Syversen
主  演 Kristina Leganger Aaserud
       Janne Beate B?nes
       Henriette Bruusgaard


标  签 恐怖 | 挪威 | 惊悚 | 我看过的恐怖电影 | 荒野恶林 | 2008 | 我看过的外语电影 | 我看过的电影

简  介  

  1974年夏天。四个伙伴计划在森林中以远足和野营的方式度过周末。在一个偏远的卡车集运站里,他们让一个惶恐不安的旅行者上了车。前进了一小段路程之后,这个旅行者强迫大家停车。她显然对某样事物很恐惧。突然,一行人遭到埋伏并失去了意识。当他们在幽深的森林里醒来时,他们所能听见的只是猎号的声音。游戏就此开始了。在噩梦般的震惊中,他们意识到自己已经成了猎物……
  1. Video
  2. ID                                       : 2
  3. Format                                   : AVC
  4. Format/Info                              : Advanced Video Codec
  5. Format profile                           : High@L4
  6. Format settings                          : CABAC / 5 Ref Frames
  7. Format settings, CABAC                   : Yes
  8. Format settings, Reference frames        : 5 frames
  9. Codec ID                                 : V_MPEG4/ISO/AVC
  10. Duration                                 : 1 h 19 min
  11. Bit rate                                 : 11.2 Mb/s
  12. Width                                    : 1 920 pixels
  13. Height                                   : 816 pixels
  14. Display aspect ratio                     : 2.35:1
  15. Frame rate mode                          : Constant
  16. Frame rate                               : 23.976 FPS
  17. Color space                              : YUV
  18. Chroma subsampling                       : 4:2:0
  19. Bit depth                                : 8 bits
  20. Scan type                                : Progressive
  21. Bits/(Pixel*Frame)                       : 0.299
  22. Stream size                              : 6.07 GiB (93%)
  23. Writing library                          : x264 core 75 r1251 e553a4c
  24. Encoding settings                        : cabac=1 / ref=5 / deblock=1:0:0 / analyse=0x3:0x133 / me=umh / subme=7 / psy=1 / psy_rd=1.0:0.0 / mixed_ref=1 / me_range=16 / chroma_me=1 / trellis=1 / 8x8dct=1 / cqm=0 / deadzone=21,11 / chroma_qp_offset=-2 / threads=6 / nr=0 / decimate=1 / mbaff=0 / bframes=3 / b_pyramid=1 / b_adapt=1 / b_bias=0 / direct=1 / wpredb=1 / keyint=250 / keyint_min=25 / scenecut=40 / rc=2pass / mbtree=0 / bitrate=11232 / ratetol=1.0 / qcomp=0.60 / qpmin=10 / qpmax=51 / qpstep=4 / cplxblur=20.0 / qblur=0.5 / ip_ratio=1.40 / pb_ratio=1.30 / aq=1:1.00
  25. Language                                 : Norwegian
  26. Default                                  : Yes
  27. Forced                                   : No

  28. Audio
  29. ID                                       : 1
  30. Format                                   : AC-3
  31. Format/Info                              : Audio Coding 3
  32. Commercial name                          : Dolby Digital
  33. Codec ID                                 : A_AC3
  34. Duration                                 : 1 h 19 min
  35. Bit rate mode                            : Constant
  36. Bit rate                                 : 640 kb/s
  37. Channel(s)                               : 6 channels
  38. Channel layout                           : L R C LFE Ls Rs
  39. Sampling rate                            : 48.0 kHz
  40. Frame rate                               : 31.250 FPS (1536 SPF)
  41. Bit depth                                : 16 bits
  42. Compression mode                         : Lossy
  43. Stream size                              : 362 MiB (5%)
  44. Language                                 : Norwegian
  45. Service kind                             : Complete Main
  46. Default                                  : Yes
  47. Forced                                   : No

  48. Text #1
  49. ID                                       : 3
  50. Format                                   : UTF-8
  51. Codec ID                                 : S_TEXT/UTF8
  52. Codec ID/Info                            : UTF-8 Plain Text
  53. Language                                 : English
  54. Default                                  : Yes
  55. Forced                                   : No

  56. Text #2
  57. ID                                       : 4
  58. Format                                   : UTF-8
  59. Codec ID                                 : S_TEXT/UTF8
  60. Codec ID/Info                            : UTF-8 Plain Text
  61. Language                                 : Swedish
  62. Default                                  : No
  63. Forced                                   : No

  64. Text #3
  65. ID                                       : 5
  66. Format                                   : UTF-8
  67. Codec ID                                 : S_TEXT/UTF8
  68. Codec ID/Info                            : UTF-8 Plain Text
  69. Language                                 : Danish
  70. Default                                  : No
  71. Forced                                   : No

  72. Text #4
  73. ID                                       : 6
  74. Format                                   : UTF-8
  75. Codec ID                                 : S_TEXT/UTF8
  76. Codec ID/Info                            : UTF-8 Plain Text
  77. Language                                 : Norwegian
  78. Default                                  : No
  79. Forced                                   : No

  80. Menu
  81. 00:00:00.000                             : :00:00:00.000
  82. 00:08:07.862                             : :00:08:07.862
  83. 00:26:51.777                             : :00:26:51.777
  84. 00:36:16.466                             : :00:36:16.466
  85. 00:49:30.176                             : :00:49:30.176
  86. 00:57:56.515                             : :00:57:56.515
  87. 01:08:54.630                             : :01:08:54.630
  88. 01:15:13.759                             : :01:15:13.759
复制代码

荒野恶林 Manhunt.2008.1080p.BluRay.x264-CULTHD 6.56GB-2.png 荒野恶林 Manhunt.2008.1080p.BluRay.x264-CULTHD 6.56GB-3.png 荒野恶林 Manhunt.2008.1080p.BluRay.x264-CULTHD 6.56GB-4.png







回复

使用道具 举报

发表于 2019-11-10 20:23:40 | 显示全部楼层
感谢楼主分享
回复 支持 反对

使用道具 举报

发表于 5 天前 | 显示全部楼层

我看不错噢 谢谢楼主!蓝光电影网越来越好!
回复 支持 反对

使用道具 举报

懒得打字嘛,点击右侧快捷回复 【右侧内容,后台自定义】
您需要登录后才可以回帖 登录 | 立即加入

本版积分规则

现在加入蓝光电影网,注册一个账号

QQ| 手机版|小黑屋| 蓝光电影网 |网站地图

Copyright © 2015-2019 Comsenz Inc.  Template by 蓝光电影论坛 All Rights Reserved.

Powered by 蓝光电影网 X3.4

特别声明:本站所有资源均由网上收集而来,版权归原影音公司所有,如果侵犯了你的权益,请通知我们,我们会及时删除侵权内容.

快速回复 返回顶部 返回列表