找回密码

蓝光电影网

查看: 32|回复: 0

[纪录片] 共济会的秘密 Secrets.of.The.Masons.2018.1080p.AMZN.WEBRip.DDP2.0.x264-GLI 3.82GB

[复制链接]

 成长值: 23215

发表于 2019-11-8 23:26:33 | 显示全部楼层 |阅读模式
共济会的秘密 Secrets.of.The.Masons.2018.1080p.AMZN.WEBRip.DDP2.0.x264-GLI 3.82GB-1.png

译  名 共济会的秘密
片  名 Secrets of The Masons
年  代 2018
产  地 英国
类  别 纪录片
语  言 英语
上映日期 2018-03-20(英国)
IMDb评分  6.1/10 from 11 users
IMDb链接  https://www.imdb.com/title/tt8160744
豆瓣评分 0/10 from 0 users
豆瓣链接 https://movie.douban.com/subject/30176266/
片  长 60分钟

标  签 纪录片 | BBC | 共济会 | 英国 | 历史 | 苏格兰 | 2018 | 英国电影

简  介  

  History of the Masons starting with Stone Masons and secrets of Construction, to becoming like the Boy qiwan.cc Scouts for Men of making Men better Men.
  1. Video
  2. ID                                       : 1
  3. Format                                   : AVC
  4. Format/Info                              : Advanced Video Codec
  5. Format profile                           : High@L4
  6. Format settings                          : CABAC / 4 Ref Frames
  7. Format settings, CABAC                   : Yes
  8. Format settings, Reference frames        : 4 frames
  9. Codec ID                                 : V_MPEG4/ISO/AVC
  10. Duration                                 : 57 min 59 s
  11. Bit rate mode                            : Constant
  12. Bit rate                                 : 9 210 kb/s
  13. Nominal bit rate                         : 10 000 kb/s
  14. Width                                    : 1 920 pixels
  15. Height                                   : 1 080 pixels
  16. Display aspect ratio                     : 16:9
  17. Frame rate mode                          : Constant
  18. Frame rate                               : 25.000 FPS
  19. Color space                              : YUV
  20. Chroma subsampling                       : 4:2:0
  21. Bit depth                                : 8 bits
  22. Scan type                                : Progressive
  23. Bits/(Pixel*Frame)                       : 0.178
  24. Stream size                              : 3.73 GiB (98%)
  25. Default                                  : Yes
  26. Forced                                   : No
  27. Color range                              : Limited
  28. Color primaries                          : BT.709
  29. Transfer characteristics                 : BT.709
  30. Matrix coefficients                      : BT.709

  31. Audio
  32. ID                                       : 2
  33. Format                                   : E-AC-3
  34. Format/Info                              : Enhanced AC-3
  35. Commercial name                          : Dolby Digital Plus
  36. Codec ID                                 : A_EAC3
  37. Duration                                 : 57 min 59 s
  38. Bit rate mode                            : Constant
  39. Bit rate                                 : 224 kb/s
  40. Channel(s)                               : 2 channels
  41. Channel layout                           : L R
  42. Sampling rate                            : 48.0 kHz
  43. Frame rate                               : 31.250 FPS (1536 SPF)
  44. Compression mode                         : Lossy
  45. Stream size                              : 92.9 MiB (2%)
  46. Language                                 : English
  47. Service kind                             : Complete Main
  48. Default                                  : Yes
  49. Forced                                   : No

  50. Text
  51. ID                                       : 3
  52. Format                                   : UTF-8
  53. Codec ID                                 : S_TEXT/UTF8
  54. Codec ID/Info                            : UTF-8 Plain Text
  55. Duration                                 : 57 min 20 s
  56. Bit rate                                 : 100 b/s
  57. Count of elements                        : 1104
  58. Stream size                              : 42.4 KiB (0%)
  59. Title                                    : SDH
  60. Language                                 : English
  61. Default                                  : Yes
  62. Forced                                   : No
复制代码

共济会的秘密 Secrets.of.The.Masons.2018.1080p.AMZN.WEBRip.DDP2.0.x264-GLI 3.82GB-2.png 共济会的秘密 Secrets.of.The.Masons.2018.1080p.AMZN.WEBRip.DDP2.0.x264-GLI 3.82GB-3.png 共济会的秘密 Secrets.of.The.Masons.2018.1080p.AMZN.WEBRip.DDP2.0.x264-GLI 3.82GB-4.png







回复

使用道具 举报

懒得打字嘛,点击右侧快捷回复 【右侧内容,后台自定义】
您需要登录后才可以回帖 登录 | 立即加入

本版积分规则

现在加入蓝光电影网,注册一个账号

QQ| 手机版|小黑屋| 蓝光电影网 |网站地图 

Copyright © 2015-2019 Comsenz Inc.  Template by 蓝光电影论坛 All Rights Reserved.

Powered by 蓝光电影网 X3.4

特别声明:本站所有资源均由网上收集而来,版权归原影音公司所有,如果侵犯了你的权益,请通知我们,我们会及时删除侵权内容.

快速回复 返回顶部 返回列表