找回密码

蓝光电影网

查看: 534|回复: 21

[恐怖] 死寂逃亡/寂静杀机 The.Silence.2019.1080p.BluRay.x264.DTS-FGT 8.24GB

[复制链接]

 成长值: 23215

发表于 2019-11-8 14:11:32 | 显示全部楼层 |阅读模式
死寂逃亡/寂静杀机 The.Silence.2019.1080p.BluRay.x264.DTS-FGT 8.24GB-1.png

译  名 死寂逃亡 / 寂静杀机(台) / 收声刹(港)
片  名 The Silence
年  代 2019
产  地 德国 / 美国
类  别 恐怖
语  言 英语
上映日期 2019-04-10(美国) / 2019-08-30(中国大陆)
IMDb评分  5.2/10 from 26171 users
IMDb链接  http://www.imdb.com/title/tt7315484
豆瓣评分 5.4/10 from 7877 users
豆瓣链接 https://movie.douban.com/subject/27050133/
片  长 90分钟
导  演 约翰·R·莱昂耐迪 John R. Leonetti
编  剧 凯莉·凡·戴克 Carey Van Dyke / 肖恩·范·戴克 Shane Van Dyke / 蒂姆·雷柏 Tim Lebbon
主  演 琪兰·席普卡 Kiernan Shipka
       斯坦利·图齐 Stanley Tucci
       米兰达·奥图 Miranda Otto
       约翰·考伯特 John Corbett
       凯尔·布瑞特科夫 Kyle Breitkopf
       邓普斯·布瑞克 Dempsey Bryk
       比利·麦克莱伦 Billy MacLellan
       萨拉·阿伯特 Sarah Abbott
       泰勒·拉芙 Taylor Love


标  签 惊悚 | 恐怖 | 美国 | 2019 | Netflix | 末日 | 奇幻 | 灾难

简  介  

  世界各地突然出现不明嗜血生物,它们靠声音狩猎,捕食人类,致使全球陷入巨大恐慌。失聪少女艾丽·安德鲁斯(琪兰·席普卡 饰)和家人被迫踏上危机四伏的逃亡之旅,然而更大的危险悄然而至。
  1. Video
  2. ID                                       : 1
  3. Format                                   : AVC
  4. Format/Info                              : Advanced Video Codec
  5. Format profile                           : High@L4
  6. Format settings                          : CABAC / 4 Ref Frames
  7. Format settings, CABAC                   : Yes
  8. Format settings, Reference frames        : 4 frames
  9. Codec ID                                 : V_MPEG4/ISO/AVC
  10. Duration                                 : 1 h 30 min
  11. Bit rate                                 : 11.5 Mb/s
  12. Width                                    : 1 920 pixels
  13. Height                                   : 800 pixels
  14. Display aspect ratio                     : 2.40:1
  15. Frame rate mode                          : Constant
  16. Frame rate                               : 23.976 (24000/1001) FPS
  17. Color space                              : YUV
  18. Chroma subsampling                       : 4:2:0
  19. Bit depth                                : 8 bits
  20. Scan type                                : Progressive
  21. Bits/(Pixel*Frame)                       : 0.312
  22. Stream size                              : 7.28 GiB (88%)
  23. Title                                    : The.Silence.2019.1080p.BluRay.x264.DTS-FGT
  24. Writing library                          : x264 core 148 r2795M aaa9aa8
  25. Encoding settings                        : cabac=1 / ref=4 / deblock=1:-2:-2 / analyse=0x3:0x113 / me=umh / subme=9 / psy=1 / psy_rd=1.00:0.15 / mixed_ref=1 / me_range=16 / chroma_me=1 / trellis=2 / 8x8dct=1 / cqm=0 / deadzone=21,11 / fast_pskip=1 / chroma_qp_offset=-3 / threads=72 / lookahead_threads=3 / sliced_threads=0 / nr=0 / decimate=1 / interlaced=0 / bluray_compat=0 / constrained_intra=0 / bframes=3 / b_pyramid=2 / b_adapt=1 / b_bias=0 / direct=3 / weightb=1 / open_gop=0 / weightp=2 / keyint=250 / keyint_min=25 / scenecut=40 / intra_refresh=0 / rc_lookahead=50 / rc=2pass / mbtree=1 / bitrate=11500 / ratetol=1.0 / qcomp=0.60 / qpmin=0 / qpmax=69 / qpstep=4 / cplxblur=20.0 / qblur=0.5 / vbv_maxrate=31250 / vbv_bufsize=31250 / nal_hrd=none / filler=0 / ip_ratio=1.40 / aq=1:1.00
  26. Language                                 : English
  27. Default                                  : Yes
  28. Forced                                   : No

  29. Audio
  30. ID                                       : 2
  31. Format                                   : DTS
  32. Format/Info                              : Digital Theater Systems
  33. Codec ID                                 : A_DTS
  34. Duration                                 : 1 h 30 min
  35. Bit rate mode                            : Constant
  36. Bit rate                                 : 1 509 kb/s
  37. Channel(s)                               : 6 channels
  38. Channel layout                           : C L R Ls Rs LFE
  39. Sampling rate                            : 48.0 kHz
  40. Frame rate                               : 93.750 FPS (512 SPF)
  41. Bit depth                                : 24 bits
  42. Compression mode                         : Lossy
  43. Stream size                              : 980 MiB (12%)
  44. Title                                    : The.Silence.2019.1080p.BluRay.x264.DTS-FGT
  45. Language                                 : English
  46. Default                                  : Yes
  47. Forced                                   : No

  48. Text #1
  49. ID                                       : 3
  50. Format                                   : UTF-8
  51. Codec ID                                 : S_TEXT/UTF8
  52. Codec ID/Info                            : UTF-8 Plain Text
  53. Duration                                 : 1 h 17 min
  54. Bit rate                                 : 1 b/s
  55. Count of elements                        : 46
  56. Stream size                              : 1.11 KiB (0%)
  57. Title                                    : English-FORCED-SRT
  58. Language                                 : English
  59. Default                                  : Yes
  60. Forced                                   : Yes

  61. Text #2
  62. ID                                       : 4
  63. Format                                   : UTF-8
  64. Codec ID                                 : S_TEXT/UTF8
  65. Codec ID/Info                            : UTF-8 Plain Text
  66. Duration                                 : 1 h 23 min
  67. Bit rate                                 : 26 b/s
  68. Count of elements                        : 591
  69. Stream size                              : 15.9 KiB (0%)
  70. Title                                    : English-SRT
  71. Language                                 : English
  72. Default                                  : No
  73. Forced                                   : No

  74. Text #3
  75. ID                                       : 5
  76. Format                                   : UTF-8
  77. Codec ID                                 : S_TEXT/UTF8
  78. Codec ID/Info                            : UTF-8 Plain Text
  79. Duration                                 : 1 h 24 min
  80. Bit rate                                 : 40 b/s
  81. Count of elements                        : 921
  82. Stream size                              : 25.2 KiB (0%)
  83. Title                                    : English-SDH-SRT
  84. Language                                 : English
  85. Default                                  : No
  86. Forced                                   : No

  87. Menu
  88. 00:00:00.000                             : en:Chapter 01
  89. 00:07:22.775                             : en:Chapter 02
  90. 00:12:34.211                             : en:Chapter 03
  91. 00:19:55.777                             : en:Chapter 04
  92. 00:25:23.730                             : en:Chapter 05
  93. 00:31:16.666                             : en:Chapter 06
  94. 00:36:58.216                             : en:Chapter 07
  95. 00:44:31.293                             : en:Chapter 08
  96. 00:50:23.437                             : en:Chapter 09
  97. 00:58:07.942                             : en:Chapter 10
  98. 01:03:35.603                             : en:Chapter 11
  99. 01:07:56.655                             : en:Chapter 12
  100. 01:15:00.287                             : en:Chapter 13
  101. 01:20:15.560                             : en:Chapter 14
  102. 01:24:45.205                             : en:Chapter 15
复制代码

141029fevdhzyelh6r8fa5.png 死寂逃亡/寂静杀机 The.Silence.2019.1080p.BluRay.x264.DTS-FGT 8.24GB-3.png 死寂逃亡/寂静杀机 The.Silence.2019.1080p.BluRay.x264.DTS-FGT 8.24GB-4.png






回复

使用道具 举报

发表于 2019-11-8 15:46:49 | 显示全部楼层

楼主太厉害了!楼主,电影应该很好看我觉得蓝光电影网真是个好地方!
回复 支持 反对

使用道具 举报

发表于 2019-11-8 16:34:46 | 显示全部楼层

我看不错噢 谢谢楼主!蓝光电影网越来越好!
回复 支持 反对

使用道具 举报

发表于 2019-11-8 17:35:04 | 显示全部楼层

这东西我收了!谢谢楼主!蓝光电影网真好!
回复 支持 反对

使用道具 举报

发表于 2019-11-8 19:25:27 | 显示全部楼层
楼主发贴辛苦了,谢谢楼主分享!我觉得蓝光电影网是注册对了!
回复 支持 反对

使用道具 举报

发表于 2019-11-8 21:23:32 | 显示全部楼层

楼主太厉害了!楼主,电影应该很好看我觉得蓝光电影网真是个好地方!
回复 支持 反对

使用道具 举报

发表于 2019-11-8 22:25:35 | 显示全部楼层

这东西我收了!谢谢楼主!蓝光电影网真好!
回复 支持 反对

使用道具 举报

发表于 2019-11-8 22:56:50 | 显示全部楼层
我看不错噢 谢谢楼主!蓝光电影网越来越好
回复 支持 反对

使用道具 举报

发表于 2019-11-9 00:09:17 | 显示全部楼层
楼主发贴辛苦了,谢谢楼主分享!我觉得蓝光电影网是注册对了!
回复 支持 反对

使用道具 举报

发表于 2019-11-9 00:12:27 | 显示全部楼层
谢谢楼主分享!
回复 支持 反对

使用道具 举报

懒得打字嘛,点击右侧快捷回复 【右侧内容,后台自定义】
您需要登录后才可以回帖 登录 | 立即加入

本版积分规则

现在加入蓝光电影网,注册一个账号

QQ| 手机版|小黑屋| 蓝光电影网 |网站地图

Copyright © 2015-2019 Comsenz Inc.  Template by 蓝光电影论坛 All Rights Reserved.

Powered by 蓝光电影网 X3.4

特别声明:本站所有资源均由网上收集而来,版权归原影音公司所有,如果侵犯了你的权益,请通知我们,我们会及时删除侵权内容.

快速回复 返回顶部 返回列表