找回密码

蓝光电影网

查看: 1415|回复: 46

[10bit.SDR] 萨利机长 2016.2160p.BluRay.x265.10bit.SDR.DTS-HD.MA.TrueHD.7.1.Atmos-SWT 21GB

[复制链接]

 成长值: 23215

发表于 2019-11-5 22:33:00 | 显示全部楼层 |阅读模式

萨利机长 2016.2160p.BluRay.x265.10bit.SDR.DTS-HD.MA.TrueHD.7.1.Atmos-SWT 21GB-1.jpg

译  名 萨利机长/萨利机长:迫降奇迹(港)/萨利机长:哈德逊奇迹(台)/哈德逊河奇迹/萨利

片  名 Sully

年  代 2016

产  地 美国

类  别 剧情/传记/灾难

语  言 英语

上映日期 2016-09-09(美国)/2016-12-09(中国大陆)

IMDb评分  7.5/10 from 158,850 users

IMDb链接  http://www.imdb.com/title/tt3263904/

豆瓣评分 8.3/10 from 131,479 users

豆瓣链接 https://movie.douban.com/subject/26416603/

片  长 96分钟

导  演 克林特·伊斯特伍德 Clint Eastwood

主  演 汤姆·汉克斯 Tom Hanks

      艾伦·艾克哈特 Aaron Eckhart

      劳拉·琳妮 Laura Linney

      杰瑞·费拉拉 Jerry Ferrara

      安娜·冈 Anna Gunn

      奥图姆·瑞瑟 Autumn Reeser

      霍特·麦克卡兰尼 Holt McCallany

      克里斯·鲍尔 Chris Bauer

      杰米·谢尔丹 Jamey Sheridan

      安·库萨克 Ann Cusack

      莫莉·哈根 Molly Hagan

      马克斯·阿德勒 Max Adler

      萨姆·亨廷顿 Sam Huntington

      韦恩·巴斯楚普 Wayne Bastrup

      维勒莉·玛哈菲 Valerie Mahaffey




简  介




  影片根据真实事件改编,2009年1月15日,萨利(汤姆·汉克斯 Tom Hanks 饰)在全美航空1549号班担任机长,飞机起飞两分钟后遭到飞鸟攻击,两架发动机全部熄火,萨利决定在哈德逊河上迫降,155人全数生还。但之后的调查显示他做了错误的抉择,认为大可选择返回拉瓜地亚机场。机内到底发生了什么呢?




获奖情况




  第89届奥斯卡金像奖  (2017)

  最佳音效剪辑(提名) 阿兰·罗伯特·默里 / Bub Asman




  第40届日本电影学院奖  (2017)

  最佳外语片




  第15届美国视觉效果协会奖  (2017)

  最佳电影辅助视觉效果(提名)




  第53届美国声音效果协会奖  (2017)

  真人电影最佳音效(提名)




  第88届美国国家评论协会奖  (2016)

  年度佳片(提名)




  第22届美国评论家选择电影奖  (2016)

  最佳影片(提名)

  最佳男主角(提名) 汤姆·汉克斯

  最佳改编剧本(提名) 托德·考马尔尼基

  最佳剪辑(提名)




  第41届美国电影学会奖  (2016)

  年度佳片




  第20届好莱坞电影奖  (2016)

  年度男主角 汤姆·汉克斯




  第15届华盛顿影评人协会奖  (2016)

  最佳剪辑(提名) Blu Murray






  1. Video
  2. ID                                       : 1
  3. Format                                   : HEVC
  4. Format/Info                              : High Efficiency Video Coding
  5. Format profile                           : Main High@L4@High
  6. Codec ID                                 : V_MPEGH/ISO/HEVC
  7. Duration                                 : 1 h 35 min
  8. Bit rate                                 : 19.8 Mb/s
  9. Width                                    : 3 840 pixels
  10. Height                                   : 1 600 pixels
  11. Display aspect ratio                     : 2.40:1
  12. Frame rate mode                          : Constant
  13. Frame rate                               : 23.976 (24000/1001) FPS
  14. Color space                              : YUV
  15. Chroma subsampling                       : 4:2:0
  16. Bit depth                                : 10 bits
  17. Bits/(Pixel*Frame)                       : 0.135
  18. Stream size                              : 13.3 GiB (62%)
  19. Title                                    : Sully.2016.2160p.BluRay.x265.10bit.SDR.DTS-HD.MA.TrueHD.7.1.Atmos-SWTYBLZ
  20. Writing library                          : x265 2.5b4a5bcfe29c7:[Windows][GCC 4.9.3][64 bit] 10bit
  21. Encoding settings                        : cpuid=1173503 / frame-threads=16 / numa-pools=24,24,24,24 / wpp / no-pmode / no-pme / no-psnr / no-ssim / log-level=2 / input-csp=1 / input-res=3840x1600 / interlace=0 / total-frames=0 / level-idc=51 / high-tier=1 / uhd-bd=0 / ref=3 / no-allow-non-conformance / repeat-headers / annexb / aud / hrd / info / hash=0 / no-temporal-layers / no-open-gop / min-keyint=1 / keyint=24 / bframes=4 / b-adapt=2 / b-pyramid / bframe-bias=0 / rc-lookahead=25 / lookahead-slices=4 / scenecut=40 / no-intra-refresh / ctu=64 / min-cu-size=8 / no-rect / no-amp / max-tu-size=32 / tu-inter-depth=1 / tu-intra-depth=1 / limit-tu=0 / rdoq-level=0 / dynamic-rd=0.00 / no-ssim-rd / signhide / no-tskip / nr-intra=0 / nr-inter=0 / no-constrained-intra / strong-intra-smoothing / max-merge=2 / limit-refs=3 / no-limit-modes / me=1 / subme=2 / merange=57 / temporal-mvp / weightp / no-weightb / no-analyze-src-pics / deblock=0:0 / no-sao / no-sao-non-deblock / rd=3 / no-early-skip / rskip / no-fast-intra / no-tskip-fast / no-cu-lossless / no-b-intra / rdpenalty=0 / psy-rd=2.00 / psy-rdoq=0.00 / no-rd-refine / analysis-reuse-mode=0 / no-lossless / cbqpoffs=0 / crqpoffs=0 / rc=crf / crf=16.0 / qcomp=0.60 / qpstep=4 / stats-write=0 / stats-read=0 / vbv-maxrate=160000 / vbv-bufsize=160000 / vbv-init=0.9 / crf-max=0.0 / crf-min=0.0 / ipratio=1.40 / pbratio=1.30 / aq-mode=1 / aq-strength=1.00 / cutree / zone-count=0 / no-strict-cbr / qg-size=32 / no-rc-grain / qpmax=69 / qpmin=0 / no-const-vbv / sar=1 / overscan=0 / videoformat=5 / range=0 / colorprim=2 / transfer=2 / colormatrix=2 / chromaloc=0 / display-window=0 / max-cll=0,0 / min-luma=0 / max-luma=1023 / log2-max-poc-lsb=8 / vui-timing-info / vui-hrd-info / slices=1 / opt-qp-pps / opt-ref-list-length-pps / no-multi-pass-opt-rps / scenecut-bias=0.05 / no-opt-cu-delta-qp / no-aq-motion / no-hdr / no-hdr-opt / no-dhdr10-opt / analysis-reuse-level=5 / scale-factor=0 / refine-intra=0 / refine-inter=0 / refine-mv=0 / no-limit-sao / ctu-info=0
  22. Language                                 : English
  23. Default                                  : Yes
  24. Forced                                   : No

  25. Audio #1
  26. ID                                       : 2
  27. Format                                   : TrueHD
  28. Format profile                           : TrueHD+Atmos / TrueHD
  29. Codec ID                                 : A_TRUEHD
  30. Duration                                 : 1 h 35 min
  31. Bit rate mode                            : Variable
  32. Bit rate                                 : 6 798 kb/s
  33. Maximum bit rate                         : 12.0 Mb/s
  34. Channel(s)                               : Object Based / 8 channels
  35. Channel positions                        : Object Based / Front: L C R, Side: L R, Back: L R, LFE
  36. Sampling rate                            :  / 48.0 kHz
  37. Frame rate                               : 1 200.000 FPS (40 spf)
  38. Compression mode                         : Lossless
  39. Stream size                              : 4.55 GiB (21%)
  40. Title                                    : Sully.2016.2160p.BluRay.x265.10bit.SDR.DTS-HD.MA.TrueHD.7.1.Atmos-SWTYBLZ
  41. Language                                 : English
  42. Default                                  : Yes
  43. Forced                                   : No

  44. Audio #2
  45. ID                                       : 3
  46. Format                                   : DTS
  47. Format/Info                              : Digital Theater Systems
  48. Format profile                           : MA / Core
  49. Mode                                     : 16
  50. Format settings, Endianness              : Big
  51. Codec ID                                 : A_DTS
  52. Duration                                 : 1 h 35 min
  53. Bit rate mode                            : Variable / Constant
  54. Bit rate                                 : 4 399 kb/s / 1 509 kb/s
  55. Channel(s)                               : 8 channels / 6 channels
  56. Channel positions                        : Front: L C R, Side: L R, Back: L R, LFE / Front: L C R, Side: L R, LFE
  57. Sampling rate                            : 48.0 kHz
  58. Frame rate                               : 93.750 FPS (512 spf)
  59. Bit depth                                : 24 bits
  60. Compression mode                         : Lossless / Lossy
  61. Stream size                              : 2.94 GiB (14%)
  62. Title                                    : Sully.2016.2160p.BluRay.x265.10bit.SDR.DTS-HD.MA.TrueHD.7.1.Atmos-SWTYBLZ
  63. Language                                 : English
  64. Default                                  : No
  65. Forced                                   : No

  66. Audio #3
  67. ID                                       : 4
  68. Format                                   : AC-3
  69. Format/Info                              : Audio Coding 3
  70. Format settings, Endianness              : Big
  71. Codec ID                                 : A_AC3
  72. Duration                                 : 1 h 35 min
  73. Bit rate mode                            : Constant
  74. Bit rate                                 : 640 kb/s
  75. Channel(s)                               : 6 channels
  76. Channel positions                        : Front: L C R, Side: L R, LFE
  77. Sampling rate                            : 48.0 kHz
  78. Frame rate                               : 31.250 FPS (1536 spf)
  79. Bit depth                                : 16 bits
  80. Compression mode                         : Lossy
  81. Stream size                              : 439 MiB (2%)
  82. Title                                    : Sully.2016.2160p.BluRay.x265.10bit.SDR.DTS-HD.MA.TrueHD.7.1.Atmos-SWTYBLZ
  83. Language                                 : English
  84. Service kind                             : Complete Main
  85. Default                                  : No
  86. Forced                                   : No

  87. Text #1
  88. ID                                       : 5
  89. Format                                   : UTF-8
  90. Codec ID                                 : S_TEXT/UTF8
  91. Codec ID/Info                            : UTF-8 Plain Text
  92. Duration                                 : 1 h 28 min
  93. Bit rate                                 : 78 b/s
  94. Count of elements                        : 1513
  95. Stream size                              : 50.4 KiB (0%)
  96. Title                                    : English-SRT
  97. Language                                 : English
  98. Default                                  : Yes
  99. Forced                                   : No

  100. Text #2
  101. ID                                       : 6
  102. Format                                   : PGS
  103. Muxing mode                              : zlib
  104. Codec ID                                 : S_HDMV/PGS
  105. Codec ID/Info                            : Picture based subtitle format used on BDs/HD-DVDs
  106. Duration                                 : 1 h 35 min
  107. Bit rate                                 : 45.6 kb/s
  108. Count of elements                        : 3284
  109. Stream size                              : 31.2 MiB (0%)
  110. Title                                    : English-PGS
  111. Language                                 : English
  112. Default                                  : No
  113. Forced                                   : No

  114. Text #3
  115. ID                                       : 7
  116. Format                                   : PGS
  117. Muxing mode                              : zlib
  118. Codec ID                                 : S_HDMV/PGS
  119. Codec ID/Info                            : Picture based subtitle format used on BDs/HD-DVDs
  120. Duration                                 : 1 h 35 min
  121. Bit rate                                 : 33.3 kb/s
  122. Count of elements                        : 2716
  123. Stream size                              : 22.8 MiB (0%)
  124. Title                                    : French-PGS
  125. Language                                 : French
  126. Default                                  : No
  127. Forced                                   : No

  128. Text #4
  129. ID                                       : 8
  130. Format                                   : PGS
  131. Muxing mode                              : zlib
  132. Codec ID                                 : S_HDMV/PGS
  133. Codec ID/Info                            : Picture based subtitle format used on BDs/HD-DVDs
  134. Duration                                 : 1 h 35 min
  135. Bit rate                                 : 31.5 kb/s
  136. Count of elements                        : 2494
  137. Stream size                              : 21.6 MiB (0%)
  138. Title                                    : Dutch-PGS
  139. Language                                 : Dutch
  140. Default                                  : No
  141. Forced                                   : No

  142. Menu
  143. 00:00:00.000                             : en:Chapter 1
  144. 00:11:12.505                             : en:Chapter 2
  145. 00:18:06.168                             : en:Chapter 3
  146. 00:29:57.921                             : en:Chapter 4
  147. 00:38:55.416                             : en:Chapter 5
  148. 00:49:20.749                             : en:Chapter 6
  149. 01:00:50.855                             : en:Chapter 7
  150. 01:08:16.383                             : en:Chapter 8
  151. 01:18:09.810                             : en:Chapter 9
  152. 01:26:59.797                             : en:Chapter 10
复制代码





萨利机长 2016.2160p.BluRay.x265.10bit.SDR.DTS-HD.MA.TrueHD.7.1.Atmos-SWT 21GB-2.jpg 萨利机长 2016.2160p.BluRay.x265.10bit.SDR.DTS-HD.MA.TrueHD.7.1.Atmos-SWT 21GB-3.jpg
萨利机长 2016.2160p.BluRay.x265.10bit.SDR.DTS-HD.MA.TrueHD.7.1.Atmos-SWT 21GB-4.jpg 萨利机长 2016.2160p.BluRay.x265.10bit.SDR.DTS-HD.MA.TrueHD.7.1.Atmos-SWT 21GB-5.jpg
萨利机长 2016.2160p.BluRay.x265.10bit.SDR.DTS-HD.MA.TrueHD.7.1.Atmos-SWT 21GB-6.jpg 萨利机长 2016.2160p.BluRay.x265.10bit.SDR.DTS-HD.MA.TrueHD.7.1.Atmos-SWT 21GB-7.jpg





回复

使用道具 举报

发表于 2019-11-5 22:50:22 | 显示全部楼层
ghdjfkugmvjbk
回复 支持 反对

使用道具 举报

发表于 2019-11-6 04:11:33 | 显示全部楼层
楼主发贴辛苦了,谢谢楼主分享!我觉得蓝光电影网是注册对了!
回复 支持 反对

使用道具 举报

发表于 2019-11-6 04:48:48 | 显示全部楼层

楼主太厉害了!楼主,电影应该很好看我觉得蓝光电影网真是个好地方!
回复 支持 反对

使用道具 举报

发表于 2019-11-6 07:55:41 | 显示全部楼层
谢谢分享,楼主厉害
回复 支持 反对

使用道具 举报

发表于 2019-11-6 08:00:10 | 显示全部楼层
楼主发贴辛苦了,谢谢楼主分享!我觉得蓝光电影网是注册对了!
回复 支持 反对

使用道具 举报

发表于 2019-11-6 08:09:55 | 显示全部楼层
这部影片有点儿意思!的确不错!非常感谢热心分享!!!!
回复 支持 反对

使用道具 举报

发表于 2019-11-6 08:31:32 | 显示全部楼层
感谢楼主分享
回复 支持 反对

使用道具 举报

发表于 2019-11-6 08:57:55 | 显示全部楼层
只要人活着回家就好。
回复 支持 反对

使用道具 举报

发表于 2019-11-6 09:41:39 | 显示全部楼层

感谢楼主的无私分享!要想蓝光电影网好 就靠你我他
回复 支持 反对

使用道具 举报

懒得打字嘛,点击右侧快捷回复 【右侧内容,后台自定义】
您需要登录后才可以回帖 登录 | 立即加入

本版积分规则

现在加入蓝光电影网,注册一个账号

QQ| 手机版|小黑屋| 蓝光电影网 |网站地图

Copyright © 2015-2019 Comsenz Inc.  Template by 蓝光电影论坛 All Rights Reserved.

Powered by 蓝光电影网 X3.4

特别声明:本站所有资源均由网上收集而来,版权归原影音公司所有,如果侵犯了你的权益,请通知我们,我们会及时删除侵权内容.

快速回复 返回顶部 返回列表