找回密码

蓝光电影网

查看: 504|回复: 11

[8bit.SDR] 萨利机长 2016.2160p.BluRay.x264.8bit.SDR.DTS-HD.MA.TrueHD.7.1.Atmos-SWT 22GB

[复制链接]

 成长值: 23215

发表于 2019-11-5 22:31:51 | 显示全部楼层 |阅读模式

萨利机长 2016.2160p.BluRay.x264.8bit.SDR.DTS-HD.MA.TrueHD.7.1.Atmos-SWT 22GB-1.jpg

译  名 萨利机长/萨利机长:迫降奇迹(港)/萨利机长:哈德逊奇迹(台)/哈德逊河奇迹/萨利

片  名 Sully

年  代 2016

产  地 美国

类  别 剧情/传记/灾难

语  言 英语

上映日期 2016-09-09(美国)/2016-12-09(中国大陆)

IMDb评分  7.5/10 from 158,850 users

IMDb链接  http://www.imdb.com/title/tt3263904/

豆瓣评分 8.3/10 from 131,479 users

豆瓣链接 https://movie.douban.com/subject/26416603/

片  长 96分钟

导  演 克林特·伊斯特伍德 Clint Eastwood

主  演 汤姆·汉克斯 Tom Hanks

      艾伦·艾克哈特 Aaron Eckhart

      劳拉·琳妮 Laura Linney

      杰瑞·费拉拉 Jerry Ferrara

      安娜·冈 Anna Gunn

      奥图姆·瑞瑟 Autumn Reeser

      霍特·麦克卡兰尼 Holt McCallany

      克里斯·鲍尔 Chris Bauer

      杰米·谢尔丹 Jamey Sheridan

      安·库萨克 Ann Cusack

      莫莉·哈根 Molly Hagan

      马克斯·阿德勒 Max Adler

      萨姆·亨廷顿 Sam Huntington

      韦恩·巴斯楚普 Wayne Bastrup

      维勒莉·玛哈菲 Valerie Mahaffey




简  介




  影片根据真实事件改编,2009年1月15日,萨利(汤姆·汉克斯 Tom Hanks 饰)在全美航空1549号班担任机长,飞机起飞两分钟后遭到飞鸟攻击,两架发动机全部熄火,萨利决定在哈德逊河上迫降,155人全数生还。但之后的调查显示他做了错误的抉择,认为大可选择返回拉瓜地亚机场。机内到底发生了什么呢?




获奖情况




  第89届奥斯卡金像奖  (2017)

  最佳音效剪辑(提名) 阿兰·罗伯特·默里 / Bub Asman




  第40届日本电影学院奖  (2017)

  最佳外语片




  第15届美国视觉效果协会奖  (2017)

  最佳电影辅助视觉效果(提名)




  第53届美国声音效果协会奖  (2017)

  真人电影最佳音效(提名)




  第88届美国国家评论协会奖  (2016)

  年度佳片(提名)




  第22届美国评论家选择电影奖  (2016)

  最佳影片(提名)

  最佳男主角(提名) 汤姆·汉克斯

  最佳改编剧本(提名) 托德·考马尔尼基

  最佳剪辑(提名)




  第41届美国电影学会奖  (2016)

  年度佳片




  第20届好莱坞电影奖  (2016)

  年度男主角 汤姆·汉克斯




  第15届华盛顿影评人协会奖  (2016)

  最佳剪辑(提名) Blu Murray




  1. Video
  2. ID                                       : 1
  3. Format                                   : AVC
  4. Format/Info                              : Advanced Video Codec
  5. Format profile                           : High@L4
  6. Format settings, CABAC                   : Yes
  7. Format settings, ReFrames                : 5 frames
  8. Codec ID                                 : V_MPEG4/ISO/AVC
  9. Duration                                 : 1 h 35 min
  10. Bit rate                                 : 21.1 Mb/s
  11. Width                                    : 3 840 pixels
  12. Height                                   : 1 600 pixels
  13. Display aspect ratio                     : 2.40:1
  14. Frame rate mode                          : Constant
  15. Frame rate                               : 23.976 (24000/1001) FPS
  16. Color space                              : YUV
  17. Chroma subsampling                       : 4:2:0
  18. Bit depth                                : 8 bits
  19. Scan type                                : Progressive
  20. Bits/(Pixel*Frame)                       : 0.143
  21. Stream size                              : 14.1 GiB (64%)
  22. Title                                    : Sully.2016.2160p.BluRay.x264.8bit.SDR.DTS-HD.MA.TrueHD.7.1.Atmos-SWTYBLZ
  23. Writing library                          : x264 core 148 r2748 97eaef2
  24. Encoding settings                        : cabac=1 / ref=5 / deblock=1:-1:-1 / analyse=0x3:0x113 / me=umh / subme=10 / psy=1 / psy_rd=1.00:0.15 / mixed_ref=1 / me_range=48 / chroma_me=1 / trellis=2 / 8x8dct=1 / cqm=0 / deadzone=21,11 / fast_pskip=1 / chroma_qp_offset=-3 / threads=50 / lookahead_threads=4 / sliced_threads=0 / nr=0 / decimate=0 / interlaced=0 / bluray_compat=0 / constrained_intra=0 / bframes=3 / b_pyramid=2 / b_adapt=2 / b_bias=0 / direct=3 / weightb=1 / open_gop=0 / weightp=2 / keyint=250 / keyint_min=23 / scenecut=40 / intra_refresh=0 / rc_lookahead=50 / rc=crf / mbtree=1 / crf=18.0 / qcomp=0.60 / qpmin=0 / qpmax=69 / qpstep=4 / ip_ratio=1.40 / aq=1:1.00
  25. Language                                 : English
  26. Default                                  : Yes
  27. Forced                                   : No

  28. Audio #1
  29. ID                                       : 2
  30. Format                                   : TrueHD
  31. Format profile                           : TrueHD+Atmos / TrueHD
  32. Codec ID                                 : A_TRUEHD
  33. Duration                                 : 1 h 35 min
  34. Bit rate mode                            : Variable
  35. Bit rate                                 : 6 798 kb/s
  36. Maximum bit rate                         : 12.0 Mb/s
  37. Channel(s)                               : Object Based / 8 channels
  38. Channel positions                        : Object Based / Front: L C R, Side: L R, Back: L R, LFE
  39. Sampling rate                            :  / 48.0 kHz
  40. Frame rate                               : 1 200.000 FPS (40 spf)
  41. Compression mode                         : Lossless
  42. Stream size                              : 4.55 GiB (21%)
  43. Title                                    : Sully.2016.2160p.BluRay.x264.8bit.SDR.DTS-HD.MA.TrueHD.7.1.Atmos-SWTYBLZ
  44. Language                                 : English
  45. Default                                  : Yes
  46. Forced                                   : No

  47. Audio #2
  48. ID                                       : 3
  49. Format                                   : DTS
  50. Format/Info                              : Digital Theater Systems
  51. Format profile                           : MA / Core
  52. Mode                                     : 16
  53. Format settings, Endianness              : Big
  54. Codec ID                                 : A_DTS
  55. Duration                                 : 1 h 35 min
  56. Bit rate mode                            : Variable / Constant
  57. Bit rate                                 : 4 399 kb/s / 1 509 kb/s
  58. Channel(s)                               : 8 channels / 6 channels
  59. Channel positions                        : Front: L C R, Side: L R, Back: L R, LFE / Front: L C R, Side: L R, LFE
  60. Sampling rate                            : 48.0 kHz
  61. Frame rate                               : 93.750 FPS (512 spf)
  62. Bit depth                                : 24 bits
  63. Compression mode                         : Lossless / Lossy
  64. Stream size                              : 2.94 GiB (13%)
  65. Title                                    : Sully.2016.2160p.BluRay.x264.8bit.SDR.DTS-HD.MA.TrueHD.7.1.Atmos-SWTYBLZ
  66. Language                                 : English
  67. Default                                  : No
  68. Forced                                   : No

  69. Audio #3
  70. ID                                       : 4
  71. Format                                   : AC-3
  72. Format/Info                              : Audio Coding 3
  73. Format settings, Endianness              : Big
  74. Codec ID                                 : A_AC3
  75. Duration                                 : 1 h 35 min
  76. Bit rate mode                            : Constant
  77. Bit rate                                 : 640 kb/s
  78. Channel(s)                               : 6 channels
  79. Channel positions                        : Front: L C R, Side: L R, LFE
  80. Sampling rate                            : 48.0 kHz
  81. Frame rate                               : 31.250 FPS (1536 spf)
  82. Bit depth                                : 16 bits
  83. Compression mode                         : Lossy
  84. Stream size                              : 439 MiB (2%)
  85. Title                                    : Sully.2016.2160p.BluRay.x264.8bit.SDR.DTS-HD.MA.TrueHD.7.1.Atmos-SWTYBLZ
  86. Language                                 : English
  87. Service kind                             : Complete Main
  88. Default                                  : No
  89. Forced                                   : No

  90. Text #1
  91. ID                                       : 5
  92. Format                                   : UTF-8
  93. Codec ID                                 : S_TEXT/UTF8
  94. Codec ID/Info                            : UTF-8 Plain Text
  95. Duration                                 : 1 h 28 min
  96. Bit rate                                 : 78 b/s
  97. Count of elements                        : 1513
  98. Stream size                              : 50.4 KiB (0%)
  99. Title                                    : English-SRT
  100. Language                                 : English
  101. Default                                  : Yes
  102. Forced                                   : No

  103. Text #2
  104. ID                                       : 6
  105. Format                                   : PGS
  106. Muxing mode                              : zlib
  107. Codec ID                                 : S_HDMV/PGS
  108. Codec ID/Info                            : Picture based subtitle format used on BDs/HD-DVDs
  109. Duration                                 : 1 h 35 min
  110. Bit rate                                 : 45.6 kb/s
  111. Count of elements                        : 3284
  112. Stream size                              : 31.2 MiB (0%)
  113. Title                                    : English-PGS
  114. Language                                 : English
  115. Default                                  : No
  116. Forced                                   : No

  117. Text #3
  118. ID                                       : 7
  119. Format                                   : PGS
  120. Muxing mode                              : zlib
  121. Codec ID                                 : S_HDMV/PGS
  122. Codec ID/Info                            : Picture based subtitle format used on BDs/HD-DVDs
  123. Duration                                 : 1 h 35 min
  124. Bit rate                                 : 33.3 kb/s
  125. Count of elements                        : 2716
  126. Stream size                              : 22.8 MiB (0%)
  127. Title                                    : French-PGS
  128. Language                                 : French
  129. Default                                  : No
  130. Forced                                   : No

  131. Text #4
  132. ID                                       : 8
  133. Format                                   : PGS
  134. Muxing mode                              : zlib
  135. Codec ID                                 : S_HDMV/PGS
  136. Codec ID/Info                            : Picture based subtitle format used on BDs/HD-DVDs
  137. Duration                                 : 1 h 35 min
  138. Bit rate                                 : 31.5 kb/s
  139. Count of elements                        : 2494
  140. Stream size                              : 21.6 MiB (0%)
  141. Title                                    : Dutch-PGS
  142. Language                                 : Dutch
  143. Default                                  : No
  144. Forced                                   : No

  145. Menu
  146. 00:00:00.000                             : en:Chapter 1
  147. 00:11:12.505                             : en:Chapter 2
  148. 00:18:06.168                             : en:Chapter 3
  149. 00:29:57.921                             : en:Chapter 4
  150. 00:38:55.416                             : en:Chapter 5
  151. 00:49:20.749                             : en:Chapter 6
  152. 01:00:50.855                             : en:Chapter 7
  153. 01:08:16.383                             : en:Chapter 8
  154. 01:18:09.810                             : en:Chapter 9
  155. 01:26:59.797                             : en:Chapter 10
复制代码





萨利机长 2016.2160p.BluRay.x264.8bit.SDR.DTS-HD.MA.TrueHD.7.1.Atmos-SWT 22GB-2.jpg 萨利机长 2016.2160p.BluRay.x264.8bit.SDR.DTS-HD.MA.TrueHD.7.1.Atmos-SWT 22GB-3.jpg
萨利机长 2016.2160p.BluRay.x264.8bit.SDR.DTS-HD.MA.TrueHD.7.1.Atmos-SWT 22GB-4.jpg 萨利机长 2016.2160p.BluRay.x264.8bit.SDR.DTS-HD.MA.TrueHD.7.1.Atmos-SWT 22GB-5.jpg
萨利机长 2016.2160p.BluRay.x264.8bit.SDR.DTS-HD.MA.TrueHD.7.1.Atmos-SWT 22GB-6.jpg 萨利机长 2016.2160p.BluRay.x264.8bit.SDR.DTS-HD.MA.TrueHD.7.1.Atmos-SWT 22GB-7.jpg





回复

使用道具 举报

发表于 2019-11-6 18:57:36 | 显示全部楼层
楼主发贴辛苦了,谢谢楼主分享!我觉得蓝光电影网是注册对了!
回复 支持 反对

使用道具 举报

发表于 2019-11-8 09:23:03 | 显示全部楼层
楼主发贴辛苦了,谢谢楼主分享!我觉得蓝光电影网是注册对了!
回复 支持 反对

使用道具 举报

发表于 2019-11-9 09:23:48 | 显示全部楼层
楼主发贴辛苦了,谢谢楼主分享!我觉得蓝光电影网是注册对了!
回复 支持 反对

使用道具 举报

发表于 2019-11-9 10:44:38 | 显示全部楼层
非常精彩的一部电影。
回复 支持 反对

使用道具 举报

发表于 2019-11-9 15:50:25 | 显示全部楼层
楼主发贴辛苦了,谢谢楼主分享!我觉得蓝光电影网是注册对了!
回复 支持 反对

使用道具 举报

发表于 2019-11-10 06:35:36 | 显示全部楼层
楼主发贴辛苦了,谢谢楼主分享!我觉得蓝光电影网是注册对了!
回复 支持 反对

使用道具 举报

发表于 6 天前 | 显示全部楼层

这东西我收了!谢谢楼主!蓝光电影网真好!
回复 支持 反对

使用道具 举报

发表于 6 天前 | 显示全部楼层
楼主发贴辛苦了,谢谢楼主分享!
回复 支持 反对

使用道具 举报

发表于 5 天前 | 显示全部楼层

这个帖子不回对不起自己!我想我是一天也不能离开蓝光电影网
回复 支持 反对

使用道具 举报

懒得打字嘛,点击右侧快捷回复 【右侧内容,后台自定义】
您需要登录后才可以回帖 登录 | 立即加入

本版积分规则

现在加入蓝光电影网,注册一个账号

QQ| 手机版|小黑屋| 蓝光电影网 |网站地图

Copyright © 2015-2019 Comsenz Inc.  Template by 蓝光电影论坛 All Rights Reserved.

Powered by 蓝光电影网 X3.4

特别声明:本站所有资源均由网上收集而来,版权归原影音公司所有,如果侵犯了你的权益,请通知我们,我们会及时删除侵权内容.

快速回复 返回顶部 返回列表