找回密码

蓝光电影网

查看: 625|回复: 21

[REMUX.HEVC] 萨利机长 2016.2160p.BluRay.REMUX.HEVC.DTS-HD.MA.TrueHD.7.1.Atmos-FGT 51GB

[复制链接]

 成长值: 23215

发表于 2019-11-5 22:30:18 | 显示全部楼层 |阅读模式
萨利机长 2016.2160p.BluRay.REMUX.HEVC.DTS-HD.MA.TrueHD.7.1.Atmos-FGT 51GB-1.jpg

译  名 萨利机长/萨利机长:迫降奇迹(港)/萨利机长:哈德逊奇迹(台)/哈德逊河奇迹/萨利

片  名 Sully

年  代 2016

产  地 美国

类  别 剧情/传记/灾难

语  言 英语

上映日期 2016-09-09(美国)/2016-12-09(中国大陆)

IMDb评分  7.5/10 from 158,850 users

IMDb链接  http://www.imdb.com/title/tt3263904/

豆瓣评分 8.3/10 from 131,479 users

豆瓣链接 https://movie.douban.com/subject/26416603/

片  长 96分钟

导  演 克林特·伊斯特伍德 Clint Eastwood

主  演 汤姆·汉克斯 Tom Hanks

      艾伦·艾克哈特 Aaron Eckhart

      劳拉·琳妮 Laura Linney

      杰瑞·费拉拉 Jerry Ferrara

      安娜·冈 Anna Gunn

      奥图姆·瑞瑟 Autumn Reeser

      霍特·麦克卡兰尼 Holt McCallany

      克里斯·鲍尔 Chris Bauer

      杰米·谢尔丹 Jamey Sheridan

      安·库萨克 Ann Cusack

      莫莉·哈根 Molly Hagan

      马克斯·阿德勒 Max Adler

      萨姆·亨廷顿 Sam Huntington

      韦恩·巴斯楚普 Wayne Bastrup

      维勒莉·玛哈菲 Valerie Mahaffey




简  介




  影片根据真实事件改编,2009年1月15日,萨利(汤姆·汉克斯 Tom Hanks 饰)在全美航空1549号班担任机长,飞机起飞两分钟后遭到飞鸟攻击,两架发动机全部熄火,萨利决定在哈德逊河上迫降,155人全数生还。但之后的调查显示他做了错误的抉择,认为大可选择返回拉瓜地亚机场。机内到底发生了什么呢?




获奖情况




  第89届奥斯卡金像奖  (2017)

  最佳音效剪辑(提名) 阿兰·罗伯特·默里 / Bub Asman




  第40届日本电影学院奖  (2017)

  最佳外语片




  第15届美国视觉效果协会奖  (2017)

  最佳电影辅助视觉效果(提名)




  第53届美国声音效果协会奖  (2017)

  真人电影最佳音效(提名)




  第88届美国国家评论协会奖  (2016)

  年度佳片(提名)




  第22届美国评论家选择电影奖  (2016)

  最佳影片(提名)

  最佳男主角(提名) 汤姆·汉克斯

  最佳改编剧本(提名) 托德·考马尔尼基

  最佳剪辑(提名)




  第41届美国电影学会奖  (2016)

  年度佳片




  第20届好莱坞电影奖  (2016)

  年度男主角 汤姆·汉克斯




  第15届华盛顿影评人协会奖  (2016)

  最佳剪辑(提名) Blu Murray




  1. Video
  2. ID                                       : 1
  3. Format                                   : HEVC
  4. Format/Info                              : High Efficiency Video Coding
  5. Format profile                           : Main High@L4@High
  6. Codec ID                                 : V_MPEGH/ISO/HEVC
  7. Duration                                 : 1 h 35 min
  8. Bit rate                                 : 60.0 Mb/s
  9. Width                                    : 3 840 pixels
  10. Height                                   : 2 160 pixels
  11. Display aspect ratio                     : 16:9
  12. Frame rate mode                          : Constant
  13. Frame rate                               : 23.976 (24000/1001) FPS
  14. Color space                              : YUV
  15. Chroma subsampling                       : 4:2:0 (Type 2)
  16. Bit depth                                : 10 bits
  17. Bits/(Pixel*Frame)                       : 0.302
  18. Stream size                              : 40.2 GiB (78%)
  19. Title                                    : Sully.2016.2160p.BluRay.REMUX.HEVC.DTS-HD.MA.TrueHD.7.1.Atmos-FGT
  20. Writing library                          : ATEME Titan File 3.7.8 (4.7.8.0)
  21. Default                                  : Yes
  22. Forced                                   : No
  23. Color range                              : Limited
  24. Color primaries                          : BT.2020
  25. Transfer characteristics                 : SMPTE ST 2084
  26. Matrix coefficients                      : BT.2020 non-constant
  27. Mastering display color primaries        : R: x=0.680000 y=0.320000, G: x=0.265000 y=0.690000, B: x=0.150000 y=0.060000, White point: x=0.312700 y=0.329000
  28. Mastering display luminance              : min: 0.0050 cd/m2, max: 4000.0000 cd/m2
  29. Maximum Content Light Level              : 4000 cd/m2
  30. Maximum Frame-Average Light Level        : 290 cd/m2

  31. Audio #1
  32. ID                                       : 2
  33. Format                                   : TrueHD
  34. Format profile                           : TrueHD+Atmos / TrueHD
  35. Codec ID                                 : A_TRUEHD
  36. Duration                                 : 1 h 35 min
  37. Bit rate mode                            : Variable
  38. Bit rate                                 : 6 798 kb/s
  39. Maximum bit rate                         : 12.0 Mb/s
  40. Channel(s)                               : Object Based / 8 channels
  41. Channel positions                        : Object Based / Front: L C R, Side: L R, Back: L R, LFE
  42. Sampling rate                            :  / 48.0 kHz
  43. Frame rate                               : 1 200.000 FPS (40 spf)
  44. Compression mode                         : Lossless
  45. Stream size                              : 4.55 GiB (9%)
  46. Title                                    : Sully.2016.2160p.BluRay.REMUX.HEVC.DTS-HD.MA.TrueHD.7.1.Atmos-FGT
  47. Language                                 : English
  48. Default                                  : Yes
  49. Forced                                   : No

  50. Audio #2
  51. ID                                       : 3
  52. Format                                   : DTS
  53. Format/Info                              : Digital Theater Systems
  54. Format profile                           : MA / Core
  55. Mode                                     : 16
  56. Format settings, Endianness              : Big
  57. Codec ID                                 : A_DTS
  58. Duration                                 : 1 h 35 min
  59. Bit rate mode                            : Variable / Constant
  60. Bit rate                                 : 4 399 kb/s / 1 509 kb/s
  61. Channel(s)                               : 8 channels / 6 channels
  62. Channel positions                        : Front: L C R, Side: L R, Back: L R, LFE / Front: L C R, Side: L R, LFE
  63. Sampling rate                            : 48.0 kHz
  64. Frame rate                               : 93.750 FPS (512 spf)
  65. Bit depth                                : 24 bits
  66. Compression mode                         : Lossless / Lossy
  67. Stream size                              : 2.94 GiB (6%)
  68. Title                                    : Sully.2016.2160p.BluRay.REMUX.HEVC.DTS-HD.MA.TrueHD.7.1.Atmos-FGT
  69. Language                                 : English
  70. Default                                  : No
  71. Forced                                   : No

  72. Audio #3
  73. ID                                       : 4
  74. Format                                   : AC-3
  75. Format/Info                              : Audio Coding 3
  76. Format settings, Endianness              : Big
  77. Codec ID                                 : A_AC3
  78. Duration                                 : 1 h 35 min
  79. Bit rate mode                            : Constant
  80. Bit rate                                 : 640 kb/s
  81. Channel(s)                               : 6 channels
  82. Channel positions                        : Front: L C R, Side: L R, LFE
  83. Sampling rate                            : 48.0 kHz
  84. Frame rate                               : 31.250 FPS (1536 spf)
  85. Bit depth                                : 16 bits
  86. Compression mode                         : Lossy
  87. Stream size                              : 439 MiB (1%)
  88. Title                                    : Sully.2016.2160p.BluRay.REMUX.HEVC.DTS-HD.MA.TrueHD.7.1.Atmos-FGT
  89. Language                                 : English
  90. Service kind                             : Complete Main
  91. Default                                  : No
  92. Forced                                   : No

  93. Audio #4
  94. ID                                       : 5
  95. Format                                   : AC-3
  96. Format/Info                              : Audio Coding 3
  97. Format settings, Endianness              : Big
  98. Codec ID                                 : A_AC3
  99. Duration                                 : 1 h 35 min
  100. Bit rate mode                            : Constant
  101. Bit rate                                 : 448 kb/s
  102. Channel(s)                               : 6 channels
  103. Channel positions                        : Front: L C R, Side: L R, LFE
  104. Sampling rate                            : 48.0 kHz
  105. Frame rate                               : 31.250 FPS (1536 spf)
  106. Bit depth                                : 16 bits
  107. Compression mode                         : Lossy
  108. Stream size                              : 307 MiB (1%)
  109. Title                                    : Sully.2016.2160p.BluRay.REMUX.HEVC.DTS-HD.MA.TrueHD.7.1.Atmos-FGT
  110. Language                                 : English
  111. Service kind                             : Complete Main
  112. Default                                  : No
  113. Forced                                   : No

  114. Audio #5
  115. ID                                       : 6
  116. Format                                   : TrueHD
  117. Format profile                           : TrueHD+Atmos / TrueHD
  118. Codec ID                                 : A_TRUEHD
  119. Duration                                 : 1 h 35 min
  120. Bit rate mode                            : Variable
  121. Bit rate                                 : 3 822 kb/s
  122. Maximum bit rate                         : 7 308 kb/s
  123. Channel(s)                               : Object Based / 8 channels
  124. Channel positions                        : Object Based / Front: L C R, Side: L R, Back: L R, LFE
  125. Sampling rate                            :  / 48.0 kHz
  126. Frame rate                               : 1 200.000 FPS (40 spf)
  127. Compression mode                         : Lossless
  128. Stream size                              : 2.56 GiB (5%)
  129. Title                                    : Sully.2016.2160p.BluRay.REMUX.HEVC.DTS-HD.MA.TrueHD.7.1.Atmos-FGT
  130. Language                                 : French
  131. Default                                  : No
  132. Forced                                   : No

  133. Audio #6
  134. ID                                       : 7
  135. Format                                   : AC-3
  136. Format/Info                              : Audio Coding 3
  137. Format settings, Endianness              : Big
  138. Codec ID                                 : A_AC3
  139. Duration                                 : 1 h 35 min
  140. Bit rate mode                            : Constant
  141. Bit rate                                 : 640 kb/s
  142. Channel(s)                               : 6 channels
  143. Channel positions                        : Front: L C R, Side: L R, LFE
  144. Sampling rate                            : 48.0 kHz
  145. Frame rate                               : 31.250 FPS (1536 spf)
  146. Bit depth                                : 16 bits
  147. Compression mode                         : Lossy
  148. Stream size                              : 439 MiB (1%)
  149. Title                                    : Sully.2016.2160p.BluRay.REMUX.HEVC.DTS-HD.MA.TrueHD.7.1.Atmos-FGT
  150. Language                                 : French
  151. Service kind                             : Complete Main
  152. Default                                  : No
  153. Forced                                   : No

  154. Text #1
  155. ID                                       : 8
  156. Format                                   : PGS
  157. Muxing mode                              : zlib
  158. Codec ID                                 : S_HDMV/PGS
  159. Codec ID/Info                            : Picture based subtitle format used on BDs/HD-DVDs
  160. Duration                                 : 1 h 35 min
  161. Bit rate                                 : 45.6 kb/s
  162. Count of elements                        : 3284
  163. Stream size                              : 31.2 MiB (0%)
  164. Title                                    : English-PGS
  165. Language                                 : English
  166. Default                                  : Yes
  167. Forced                                   : No

  168. Text #2
  169. ID                                       : 9
  170. Format                                   : PGS
  171. Muxing mode                              : zlib
  172. Codec ID                                 : S_HDMV/PGS
  173. Codec ID/Info                            : Picture based subtitle format used on BDs/HD-DVDs
  174. Duration                                 : 1 h 35 min
  175. Bit rate                                 : 33.3 kb/s
  176. Count of elements                        : 2716
  177. Stream size                              : 22.8 MiB (0%)
  178. Title                                    : French-PGS
  179. Language                                 : French
  180. Default                                  : No
  181. Forced                                   : No

  182. Text #3
  183. ID                                       : 10
  184. Format                                   : PGS
  185. Muxing mode                              : zlib
  186. Codec ID                                 : S_HDMV/PGS
  187. Codec ID/Info                            : Picture based subtitle format used on BDs/HD-DVDs
  188. Duration                                 : 1 h 35 min
  189. Bit rate                                 : 31.5 kb/s
  190. Count of elements                        : 2494
  191. Stream size                              : 21.6 MiB (0%)
  192. Title                                    : Dutch-PGS
  193. Language                                 : Dutch
  194. Default                                  : No
  195. Forced                                   : No

  196. Text #4
  197. ID                                       : 11
  198. Format                                   : PGS
  199. Muxing mode                              : zlib
  200. Codec ID                                 : S_HDMV/PGS
  201. Codec ID/Info                            : Picture based subtitle format used on BDs/HD-DVDs
  202. Duration                                 : 28 min 33 s
  203. Bit rate                                 : 3 183 b/s
  204. Count of elements                        : 80
  205. Stream size                              : 666 KiB (0%)
  206. Title                                    : French-FORCED-PGS
  207. Language                                 : French
  208. Default                                  : No
  209. Forced                                   : No

  210. Menu
  211. 00:00:00.000                             : en:Chapter 1
  212. 00:11:12.505                             : en:Chapter 2
  213. 00:18:06.168                             : en:Chapter 3
  214. 00:29:57.921                             : en:Chapter 4
  215. 00:38:55.416                             : en:Chapter 5
  216. 00:49:20.749                             : en:Chapter 6
  217. 01:00:50.855                             : en:Chapter 7
  218. 01:08:16.383                             : en:Chapter 8
  219. 01:18:09.810                             : en:Chapter 9
  220. 01:26:59.797                             : en:Chapter 10
复制代码




萨利机长 2016.2160p.BluRay.REMUX.HEVC.DTS-HD.MA.TrueHD.7.1.Atmos-FGT 51GB-2.jpg 萨利机长 2016.2160p.BluRay.REMUX.HEVC.DTS-HD.MA.TrueHD.7.1.Atmos-FGT 51GB-3.jpg
萨利机长 2016.2160p.BluRay.REMUX.HEVC.DTS-HD.MA.TrueHD.7.1.Atmos-FGT 51GB-4.jpg 萨利机长 2016.2160p.BluRay.REMUX.HEVC.DTS-HD.MA.TrueHD.7.1.Atmos-FGT 51GB-5.jpg
萨利机长 2016.2160p.BluRay.REMUX.HEVC.DTS-HD.MA.TrueHD.7.1.Atmos-FGT 51GB-6.jpg 萨利机长 2016.2160p.BluRay.REMUX.HEVC.DTS-HD.MA.TrueHD.7.1.Atmos-FGT 51GB-7.jpg






回复

使用道具 举报

发表于 2019-11-6 07:12:38 | 显示全部楼层

这东西我收了!谢谢楼主!蓝光电影网真好!
回复 支持 反对

使用道具 举报

发表于 2019-11-6 09:08:30 | 显示全部楼层
这东西我收了!谢谢楼主!蓝光电影网真好!
回复 支持 反对

使用道具 举报

发表于 2019-11-6 09:18:19 | 显示全部楼层
这东西我收了!谢谢楼主!
回复 支持 反对

使用道具 举报

发表于 2019-11-6 09:23:20 | 显示全部楼层
谢谢分享。
回复

使用道具 举报

发表于 2019-11-6 10:33:02 | 显示全部楼层

楼主太厉害了!楼主,电影应该很好看我觉得蓝光电影网真是个好地方!
回复 支持 反对

使用道具 举报

 成长值: 1010

发表于 2019-11-6 12:29:14 | 显示全部楼层
谢谢楼主无私分享。
回复 支持 反对

使用道具 举报

 成长值: 415

发表于 2019-11-6 13:06:14 | 显示全部楼层
看看我自己的成长值
回复 支持 反对

使用道具 举报

发表于 2019-11-7 08:12:02 | 显示全部楼层
楼主发贴辛苦了,谢谢楼主分享!我觉得蓝光电影网是注册对了!
回复 支持 反对

使用道具 举报

 成长值: 640

发表于 2019-11-7 09:08:57 | 显示全部楼层
萨利机长4k
回复 支持 反对

使用道具 举报

懒得打字嘛,点击右侧快捷回复 【右侧内容,后台自定义】
您需要登录后才可以回帖 登录 | 立即加入

本版积分规则

现在加入蓝光电影网,注册一个账号

QQ| 手机版|小黑屋| 蓝光电影网 |网站地图

Copyright © 2015-2019 Comsenz Inc.  Template by 蓝光电影论坛 All Rights Reserved.

Powered by 蓝光电影网 X3.4

特别声明:本站所有资源均由网上收集而来,版权归原影音公司所有,如果侵犯了你的权益,请通知我们,我们会及时删除侵权内容.

快速回复 返回顶部 返回列表