找回密码

蓝光电影网

查看: 195|回复: 3

[8bit.SDR] 在黑暗中讲述的恐怖故事/在黑暗中说的鬼故事 Scary.Stories.to.Tell.in.the.Dark.2019.2160p.BluRay.x264.8bit.SDR.DTS-HD.MA.TrueHD.5.1-SWTYBLZ 22.07GB

[复制链接]

 成长值: 23215

发表于 2019-10-30 17:30:08 | 显示全部楼层 |阅读模式
在黑暗中讲述的恐怖故事/在黑暗中说的鬼故事 Scary.Stories.to.Tell.in.the.Dark.2019.2160p.BluRay.x264.8bit.SDR.DTS-HD.MA.TrueHD.5.1-SWTYBLZ 22.07GB-1.png

译  名 在黑暗中讲述的恐怖故事 / 在黑暗中说的鬼故事(台) / 讲鬼故(港) / 黑暗恐怖故事
片  名 Scary Stories to Tell in the Dark
年  代 2019
产  地 美国
类  别 恐怖
语  言 英语
上映日期 2019-08-09(美国)
IMDb评分  6.4/10 from 20523 users
IMDb链接  https://www.imdb.com/title/tt3387520
豆瓣评分 6.1/10 from 2971 users
豆瓣链接 https://movie.douban.com/subject/26278747/
片  长 108分钟
导  演 安德烈·艾弗道夫 André ?vredal
编  剧 约翰·奥古斯特 John August / 马库斯·邓斯坦 Marcus Dunstan / 丹·哈格曼 Dan Hageman / 凯文·哈格曼 Kevin Hageman / 帕特里克·梅尔顿 Patrick Melton / 艾尔文·史瓦兹 Alvin Schwartz / 吉尔莫·德尔·托罗 Guillermo del Toro
主  演 佐伊·玛格丽特·科莱蒂 Zoe Margaret Colletti
       迈克尔·加尔扎 Michael Garza
       加布里埃尔·拉什 Gabriel Rush
       吉尔·贝罗斯 Gil Bellows
       哈维尔·博泰特 Javier Botet
       迪恩·诺里斯 Dean Norris
       洛莱妮·图桑特 Lorraine Toussaint
       奥斯汀·艾布拉姆斯 Austin Abrams
       马克·斯达格 Mark Steger
       斯蒂芬妮·贝尔丁 Stephanie Belding
       简·莫凡特 Jane Moffat


标  签 恐怖 | 惊悚 | 美国 | 2019 | 灵异 | 改编 | 在黑暗中讲述的恐怖故事 | 科幻

简  介  

  安德烈·艾弗道夫([无名女尸])接替吉尔莫·德尔·托罗执导[在黑暗中讲述的恐怖故事],丹·哈格曼、凯文·哈格曼操刀剧本,CBS负责影片制作。而托罗将担任制片人。该片根据艾文·施瓦兹的同名小说改编,故事围绕一群年轻人展开,小镇频发死亡事件,他们必须找出背后的秘密。本片明年夏天开拍。
  1. Video
  2. ID                                       : 1
  3. Format                                   : AVC
  4. Format/Info                              : Advanced Video Codec
  5. Format profile                           : High@L4
  6. Format settings                          : CABAC / 5 Ref Frames
  7. Format settings, CABAC                   : Yes
  8. Format settings, Reference frames        : 5 frames
  9. Codec ID                                 : V_MPEG4/ISO/AVC
  10. Duration                                 : 1 h 47 min
  11. Bit rate                                 : 23.6 Mb/s
  12. Width                                    : 3 840 pixels
  13. Height                                   : 1 610 pixels
  14. Display aspect ratio                     : 2.40:1
  15. Frame rate mode                          : Constant
  16. Frame rate                               : 23.976 (24000/1001) FPS
  17. Color space                              : YUV
  18. Chroma subsampling                       : 4:2:0
  19. Bit depth                                : 8 bits
  20. Scan type                                : Progressive
  21. Bits/(Pixel*Frame)                       : 0.159
  22. Stream size                              : 17.8 GiB (81%)
  23. Title                                    : Scary.Stories.to.Tell.in.the.Dark.2019.2160p.BluRay.x264.8bit.SDR.DTS-HD.MA.TrueHD.5.1-SWTYBLZ
  24. Writing library                          : x264 core 157 r2935 545de2f
  25. Encoding settings                        : cabac=1 / ref=5 / deblock=1:-1:-1 / analyse=0x3:0x113 / me=umh / subme=10 / psy=1 / psy_rd=1.00:0.15 / mixed_ref=1 / me_range=48 / chroma_me=1 / trellis=2 / 8x8dct=1 / cqm=0 / deadzone=21,11 / fast_pskip=1 / chroma_qp_offset=-3 / threads=48 / lookahead_threads=4 / sliced_threads=0 / nr=0 / decimate=0 / interlaced=0 / bluray_compat=0 / constrained_intra=0 / bframes=3 / b_pyramid=2 / b_adapt=2 / b_bias=0 / direct=3 / weightb=1 / open_gop=0 / weightp=2 / keyint=250 / keyint_min=23 / scenecut=40 / intra_refresh=0 / rc_lookahead=50 / rc=crf / mbtree=1 / crf=18.0 / qcomp=0.60 / qpmin=0 / qpmax=69 / qpstep=4 / ip_ratio=1.40 / aq=1:1.00
  26. Language                                 : English
  27. Default                                  : Yes
  28. Forced                                   : No

  29. Audio #1
  30. ID                                       : 2
  31. Format                                   : MLP FBA
  32. Format/Info                              : Meridian Lossless Packing FBA
  33. Commercial name                          : Dolby TrueHD
  34. Codec ID                                 : A_TRUEHD
  35. Duration                                 : 1 h 47 min
  36. Bit rate mode                            : Variable
  37. Bit rate                                 : 1 714 kb/s
  38. Maximum bit rate                         : 3 150 kb/s
  39. Channel(s)                               : 6 channels
  40. Channel layout                           : L R C LFE Ls Rs
  41. Sampling rate                            : 48.0 kHz
  42. Frame rate                               : 1 200.000 FPS (40 SPF)
  43. Compression mode                         : Lossless
  44. Stream size                              : 1.29 GiB (6%)
  45. Title                                    : Scary.Stories.to.Tell.in.the.Dark.2019.2160p.BluRay.x264.8bit.SDR.DTS-HD.MA.TrueHD.5.1-SWTYBLZ
  46. Language                                 : English
  47. Default                                  : Yes
  48. Forced                                   : No

  49. Audio #2
  50. ID                                       : 3
  51. Format                                   : DTS XLL
  52. Format/Info                              : Digital Theater Systems
  53. Commercial name                          : DTS-HD Master Audio
  54. Codec ID                                 : A_DTS
  55. Duration                                 : 1 h 47 min
  56. Bit rate mode                            : Variable
  57. Bit rate                                 : 3 061 kb/s
  58. Channel(s)                               : 6 channels
  59. Channel layout                           : C L R Ls Rs LFE
  60. Sampling rate                            : 48.0 kHz
  61. Frame rate                               : 93.750 FPS (512 SPF)
  62. Bit depth                                : 24 bits
  63. Compression mode                         : Lossless
  64. Stream size                              : 2.31 GiB (10%)
  65. Title                                    : Scary.Stories.to.Tell.in.the.Dark.2019.2160p.BluRay.x264.8bit.SDR.DTS-HD.MA.TrueHD.5.1-SWTYBLZ
  66. Language                                 : English
  67. Default                                  : No
  68. Forced                                   : No

  69. Audio #3
  70. ID                                       : 4
  71. Format                                   : AC-3
  72. Format/Info                              : Audio Coding 3
  73. Commercial name                          : Dolby Digital
  74. Codec ID                                 : A_AC3
  75. Duration                                 : 1 h 47 min
  76. Bit rate mode                            : Constant
  77. Bit rate                                 : 640 kb/s
  78. Channel(s)                               : 6 channels
  79. Channel layout                           : L R C LFE Ls Rs
  80. Sampling rate                            : 48.0 kHz
  81. Frame rate                               : 31.250 FPS (1536 SPF)
  82. Bit depth                                : 16 bits
  83. Compression mode                         : Lossy
  84. Stream size                              : 494 MiB (2%)
  85. Title                                    : Scary.Stories.to.Tell.in.the.Dark.2019.2160p.BluRay.x264.8bit.SDR.DTS-HD.MA.TrueHD.5.1-SWTYBLZ
  86. Language                                 : English
  87. Service kind                             : Complete Main
  88. Default                                  : No
  89. Forced                                   : No

  90. Text #1
  91. ID                                       : 5
  92. Format                                   : UTF-8
  93. Codec ID                                 : S_TEXT/UTF8
  94. Codec ID/Info                            : UTF-8 Plain Text
  95. Duration                                 : 1 h 39 min
  96. Bit rate                                 : 45 b/s
  97. Count of elements                        : 1244
  98. Stream size                              : 32.8 KiB (0%)
  99. Title                                    : English-SRT
  100. Language                                 : English
  101. Default                                  : Yes
  102. Forced                                   : No

  103. Text #2
  104. ID                                       : 6
  105. Format                                   : PGS
  106. Muxing mode                              : zlib
  107. Codec ID                                 : S_HDMV/PGS
  108. Codec ID/Info                            : Picture based subtitle format used on BDs/HD-DVDs
  109. Duration                                 : 1 h 43 min
  110. Bit rate                                 : 30.3 kb/s
  111. Count of elements                        : 2304
  112. Stream size                              : 22.5 MiB (0%)
  113. Title                                    : English-PGS
  114. Language                                 : English
  115. Default                                  : No
  116. Forced                                   : No

  117. Text #3
  118. ID                                       : 7
  119. Format                                   : PGS
  120. Muxing mode                              : zlib
  121. Codec ID                                 : S_HDMV/PGS
  122. Codec ID/Info                            : Picture based subtitle format used on BDs/HD-DVDs
  123. Duration                                 : 1 h 43 min
  124. Bit rate                                 : 36.0 kb/s
  125. Count of elements                        : 2630
  126. Stream size                              : 26.8 MiB (0%)
  127. Title                                    : English-SDH-PGS
  128. Language                                 : English
  129. Default                                  : No
  130. Forced                                   : No

  131. Text #4
  132. ID                                       : 8
  133. Format                                   : PGS
  134. Muxing mode                              : zlib
  135. Codec ID                                 : S_HDMV/PGS
  136. Codec ID/Info                            : Picture based subtitle format used on BDs/HD-DVDs
  137. Duration                                 : 1 h 39 min
  138. Bit rate                                 : 28.2 kb/s
  139. Count of elements                        : 2194
  140. Stream size                              : 20.1 MiB (0%)
  141. Title                                    : Spanish-PGS
  142. Language                                 : Spanish
  143. Default                                  : No
  144. Forced                                   : No

  145. Menu
  146. 00:00:00.000                             : en:Chapter 01
  147. 00:05:44.386                             : en:Chapter 02
  148. 00:13:23.052                             : en:Chapter 03
  149. 00:18:52.131                             : en:Chapter 04
  150. 00:25:34.742                             : en:Chapter 05
  151. 00:28:31.168                             : en:Chapter 06
  152. 00:36:17.300                             : en:Chapter 07
  153. 00:47:06.282                             : en:Chapter 08
  154. 00:54:17.171                             : en:Chapter 09
  155. 00:58:36.304                             : en:Chapter 10
  156. 01:02:36.378                             : en:Chapter 11
  157. 01:11:04.677                             : en:Chapter 12
  158. 01:17:59.425                             : en:Chapter 13
  159. 01:24:33.902                             : en:Chapter 14
  160. 01:29:53.179                             : en:Chapter 15
  161. 01:38:30.279                             : en:Chapter 16
复制代码

在黑暗中讲述的恐怖故事/在黑暗中说的鬼故事 Scary.Stories.to.Tell.in.the.Dark.2019.2160p.BluRay.x264.8bit.SDR.DTS-HD.MA.TrueHD.5.1-SWTYBLZ 22.07GB-2.png 在黑暗中讲述的恐怖故事/在黑暗中说的鬼故事 Scary.Stories.to.Tell.in.the.Dark.2019.2160p.BluRay.x264.8bit.SDR.DTS-HD.MA.TrueHD.5.1-SWTYBLZ 22.07GB-3.png 在黑暗中讲述的恐怖故事/在黑暗中说的鬼故事 Scary.Stories.to.Tell.in.the.Dark.2019.2160p.BluRay.x264.8bit.SDR.DTS-HD.MA.TrueHD.5.1-SWTYBLZ 22.07GB-4.png 在黑暗中讲述的恐怖故事/在黑暗中说的鬼故事 Scary.Stories.to.Tell.in.the.Dark.2019.2160p.BluRay.x264.8bit.SDR.DTS-HD.MA.TrueHD.5.1-SWTYBLZ 22.07GB-5.png 在黑暗中讲述的恐怖故事/在黑暗中说的鬼故事 Scary.Stories.to.Tell.in.the.Dark.2019.2160p.BluRay.x264.8bit.SDR.DTS-HD.MA.TrueHD.5.1-SWTYBLZ 22.07GB-6.png 在黑暗中讲述的恐怖故事/在黑暗中说的鬼故事 Scary.Stories.to.Tell.in.the.Dark.2019.2160p.BluRay.x264.8bit.SDR.DTS-HD.MA.TrueHD.5.1-SWTYBLZ 22.07GB-7.png







回复

使用道具 举报

发表于 2019-10-31 21:20:06 | 显示全部楼层

这个帖子不回对不起自己!我想我是一天也不能离开蓝光电影网
回复 支持 反对

使用道具 举报

发表于 2019-11-2 08:25:50 | 显示全部楼层

这个帖子不回对不起自己!我想我是一天也不能离开蓝光电影网
回复 支持 反对

使用道具 举报

 成长值: 2810

发表于 2019-11-3 17:22:48 | 显示全部楼层
楼主发贴辛苦了,谢谢楼主分享!我觉得蓝光电影网是注册对了!
回复 支持 反对

使用道具 举报

懒得打字嘛,点击右侧快捷回复 【右侧内容,后台自定义】
您需要登录后才可以回帖 登录 | 立即加入

本版积分规则

现在加入蓝光电影网,注册一个账号

QQ| 手机版|小黑屋| 蓝光电影网 |网站地图 

Copyright © 2015-2019 Comsenz Inc.  Template by 蓝光电影论坛 All Rights Reserved.

Powered by 蓝光电影网 X3.4

特别声明:本站所有资源均由网上收集而来,版权归原影音公司所有,如果侵犯了你的权益,请通知我们,我们会及时删除侵权内容.

快速回复 返回顶部 返回列表