找回密码

蓝光电影网

查看: 1195|回复: 32

[REMUX.HEVC] 终结者2018 Terminator.Salvation.2009.2160p.BluRay.REMUX.HEVC.DTS-HD.MA.5.1-FGT 49.40GB

[复制链接]

 成长值: 23215

发表于 2019-10-28 20:28:20 | 显示全部楼层 |阅读模式
终结者2018 Terminator.Salvation.2009.2160p.BluRay.REMUX.HEVC.DTS-HD.MA.5.1-FGT 49.40GB-1.png

译  名 终结者2018 / T4 / Terminator 4 / Terminator Salvation: The Future Begins / 未来战士2018(港) / 未来战士4 / 终结者4:救世主 / 终结者4:救世军 / 魔鬼终结者:未来救赎(台)
片  名 Terminator Salvation
年  代 2009
产  地 美国 / 德国 / 英国 / 意大利
类  别 动作 / 科幻 / 惊悚 / 冒险
语  言 英语 / 意大利语
上映日期 2009-05-21(美国) / 2009-06-09(中国大陆)
IMDb评分  6.5/10 from 325715 users
IMDb链接  https://www.imdb.com/title/tt0438488
豆瓣评分 6.7/10 from 75576 users
豆瓣链接 https://movie.douban.com/subject/1410556/
片  长 115分钟
导  演 约瑟夫·麦克金提·尼彻 McG
编  剧 约翰·布兰卡托 John Brancato / 迈克尔·费里斯 Michael Ferris
主  演 克里斯蒂安·贝尔 Christian Bale
       萨姆·沃辛顿 Sam Worthington
       穆恩·布拉得古德 Moon Bloodgood
       海伦娜·伯翰·卡特 Helena Bonham Carter
       安东·叶利钦 Anton Yelchin
       布莱丝·达拉斯·霍华德 Bryce Dallas Howard
       科曼 Common
       简·亚历山大 Jane Alexander
       迈克尔·艾恩塞德 Michael Ironside
       克里斯·勃朗宁 Chris Browning
       贝丝·贝利 Beth Bailey
       巴斯特·雷维斯 Buster Reeves
       格雷格·塞拉诺 Greg Serano
       布鲁斯·麦金托什 Bruce McIntosh
       特雷瓦·埃迪内 Treva Etienne
       迪兰·科宁 Dylan Kenin
       迈克尔·帕帕约翰 Michael Papajohn
       克里斯·阿斯沃思 Chris Ashworth
       格雷格·普利特 Greg Plitt
       泰瑞·克鲁斯 Terry Crews
       扎克·麦克格温 Zach McGowan
       艾萨克·卡皮 Isaac Kappy
       布兹·萨瑟兰德 Boots Southerland
       大卫·米德桑德 David Midthunder
       安居尔·尼加姆 Anjul Nigam
       罗兰佐·卡伦德 Lorenzo Callender
       乔·巴齐尔 Joe Basile
       罗兰德·基金格 Roland Kickinger
       布莱恩·斯蒂尔 Brian Steele
       琳达·汉密尔顿 Linda Hamilton
       保罗·J·珀尔特 Paul J. Porter
       弗兰克·鲍沃斯 Frank Powers
       Jadagrace
       Ivan G'Vera
       Dorian Nkono
       Victor J. Ho
       Neil Harbisson
       Luke Kearney
       Gregory Leiker
       Mark Rayner


标  签 科幻 | 美国 | 动作 | 终结者2018 | 2009 | 战争 | Terminator | 暴力

简  介  

  2018年,天网系统与人类的战争使世界陷入了末世般的境况,反抗军精神领袖约翰·康纳(克里斯蒂安·贝尔 Christian Bale 饰)带队执行一次任务的过程中获得了战胜天网的新思路,而天网系统适时推出了新的目标排名,康纳位居次席,榜首上康纳此时尚年青的父亲凯尔·瑞斯赫 然在列。与此同时,一名遗忘了自身过去经历的强壮男子马库斯(萨姆·沃辛顿 Sam Worthington 饰)出现在洛杉矶的废墟中,他与反抗军战士瑞斯偶然结识,并组队前往反抗军总部,不料途中遭机械人袭击,瑞斯被俘。落单的马库斯经由反抗军女战士布莱尔引路,迎来了与康纳命中注定的相遇,但人与机械的对立让康纳不得不视对方为敌人……
  瑞斯在天网中心生死未卜,同时反抗军高层不肯推迟强行进攻计划,留给康纳的时间不再充裕,他只能选择进行一场赌上性命与荣誉的潜入行动。

获奖情况  

  第11届美国青少年选择奖(2009)
  最佳动作冒险电影(提名)
  最佳动作冒险电影男演员(提名) 克里斯蒂安·贝尔
  最佳动作冒险电影女演员(提名) 布莱丝·达拉斯·霍华德
  Choice Movie Fresh Face Male(提名) 萨姆·沃辛顿
  最佳暑期动作冒险电影(提名)
  1. Video
  2. ID                                       : 1
  3. Format                                   : HEVC
  4. Format/Info                              : High Efficiency Video Coding
  5. Format profile                           : Main High@L4@High
  6. HDR format                               : SMPTE ST 2086, HDR10 compatible
  7. Codec ID                                 : V_MPEGH/ISO/HEVC
  8. Duration                                 : 1 h 54 min
  9. Bit rate                                 : 48.2 Mb/s
  10. Width                                    : 3 840 pixels
  11. Height                                   : 2 160 pixels
  12. Display aspect ratio                     : 16:9
  13. Frame rate mode                          : Constant
  14. Frame rate                               : 23.976 (24000/1001) FPS
  15. Color space                              : YUV
  16. Chroma subsampling                       : 4:2:0 (Type 2)
  17. Bit depth                                : 10 bits
  18. Bits/(Pixel*Frame)                       : 0.243
  19. Stream size                              : 38.7 GiB (78%)
  20. Title                                    : Terminator.Salvation.2009.2160p.BluRay.REMUX.HEVC.DTS-HD.MA.5.1-FGT
  21. Language                                 : English
  22. Default                                  : No
  23. Forced                                   : No
  24. Color range                              : Limited
  25. Color primaries                          : BT.2020
  26. Transfer characteristics                 : PQ
  27. Matrix coefficients                      : BT.2020 non-constant
  28. Mastering display color primaries        : Display P3
  29. Mastering display luminance              : min: 0.0001 cd/m2, max: 1000 cd/m2
  30. Maximum Content Light Level              : 992 cd/m2
  31. Maximum Frame-Average Light Level        : 523 cd/m2

  32. Audio #1
  33. ID                                       : 2
  34. Format                                   : DTS XLL
  35. Format/Info                              : Digital Theater Systems
  36. Commercial name                          : DTS-HD Master Audio
  37. Codec ID                                 : A_DTS
  38. Duration                                 : 1 h 54 min
  39. Bit rate mode                            : Variable
  40. Bit rate                                 : 2 424 kb/s
  41. Channel(s)                               : 6 channels
  42. Channel layout                           : C L R Ls Rs LFE
  43. Sampling rate                            : 48.0 kHz
  44. Frame rate                               : 93.750 FPS (512 SPF)
  45. Bit depth                                : 16 bits
  46. Compression mode                         : Lossless
  47. Stream size                              : 1.94 GiB (4%)
  48. Title                                    : Terminator.Salvation.2009.2160p.BluRay.REMUX.HEVC.DTS-HD.MA.5.1-FGT
  49. Language                                 : English
  50. Default                                  : Yes
  51. Forced                                   : No

  52. Audio #2
  53. ID                                       : 3
  54. Format                                   : AC-3
  55. Format/Info                              : Audio Coding 3
  56. Commercial name                          : Dolby Digital
  57. Codec ID                                 : A_AC3
  58. Duration                                 : 1 h 54 min
  59. Bit rate mode                            : Constant
  60. Bit rate                                 : 640 kb/s
  61. Channel(s)                               : 6 channels
  62. Channel layout                           : L R C LFE Ls Rs
  63. Sampling rate                            : 48.0 kHz
  64. Frame rate                               : 31.250 FPS (1536 SPF)
  65. Bit depth                                : 16 bits
  66. Compression mode                         : Lossy
  67. Stream size                              : 525 MiB (1%)
  68. Title                                    : Terminator.Salvation.2009.2160p.BluRay.REMUX.HEVC.DTS-HD.MA.5.1-FGT
  69. Language                                 : English
  70. Service kind                             : Complete Main
  71. Default                                  : No
  72. Forced                                   : No

  73. Audio #3
  74. ID                                       : 4
  75. Format                                   : AC-3
  76. Format/Info                              : Audio Coding 3
  77. Commercial name                          : Dolby Digital
  78. Codec ID                                 : A_AC3
  79. Duration                                 : 1 h 54 min
  80. Bit rate mode                            : Constant
  81. Bit rate                                 : 640 kb/s
  82. Channel(s)                               : 6 channels
  83. Channel layout                           : L R C LFE Ls Rs
  84. Sampling rate                            : 48.0 kHz
  85. Frame rate                               : 31.250 FPS (1536 SPF)
  86. Bit depth                                : 16 bits
  87. Compression mode                         : Lossy
  88. Stream size                              : 525 MiB (1%)
  89. Title                                    : Terminator.Salvation.2009.2160p.BluRay.REMUX.HEVC.DTS-HD.MA.5.1-FGT
  90. Language                                 : Czech
  91. Service kind                             : Complete Main
  92. Default                                  : No
  93. Forced                                   : No

  94. Audio #4
  95. ID                                       : 5
  96. Format                                   : AC-3
  97. Format/Info                              : Audio Coding 3
  98. Commercial name                          : Dolby Digital
  99. Codec ID                                 : A_AC3
  100. Duration                                 : 1 h 54 min
  101. Bit rate mode                            : Constant
  102. Bit rate                                 : 640 kb/s
  103. Channel(s)                               : 6 channels
  104. Channel layout                           : L R C LFE Ls Rs
  105. Sampling rate                            : 48.0 kHz
  106. Frame rate                               : 31.250 FPS (1536 SPF)
  107. Bit depth                                : 16 bits
  108. Compression mode                         : Lossy
  109. Stream size                              : 525 MiB (1%)
  110. Title                                    : Terminator.Salvation.2009.2160p.BluRay.REMUX.HEVC.DTS-HD.MA.5.1-FGT
  111. Language                                 : French
  112. Service kind                             : Complete Main
  113. Default                                  : No
  114. Forced                                   : No

  115. Audio #5
  116. ID                                       : 6
  117. Format                                   : DTS XLL
  118. Format/Info                              : Digital Theater Systems
  119. Commercial name                          : DTS-HD Master Audio
  120. Codec ID                                 : A_DTS
  121. Duration                                 : 1 h 54 min
  122. Bit rate mode                            : Variable
  123. Bit rate                                 : 2 475 kb/s
  124. Channel(s)                               : 6 channels
  125. Channel layout                           : C L R Ls Rs LFE
  126. Sampling rate                            : 48.0 kHz
  127. Frame rate                               : 93.750 FPS (512 SPF)
  128. Bit depth                                : 16 bits
  129. Compression mode                         : Lossless
  130. Stream size                              : 1.98 GiB (4%)
  131. Title                                    : Terminator.Salvation.2009.2160p.BluRay.REMUX.HEVC.DTS-HD.MA.5.1-FGT
  132. Language                                 : German
  133. Default                                  : No
  134. Forced                                   : No

  135. Audio #6
  136. ID                                       : 7
  137. Format                                   : AC-3
  138. Format/Info                              : Audio Coding 3
  139. Commercial name                          : Dolby Digital
  140. Codec ID                                 : A_AC3
  141. Duration                                 : 1 h 54 min
  142. Bit rate mode                            : Constant
  143. Bit rate                                 : 640 kb/s
  144. Channel(s)                               : 6 channels
  145. Channel layout                           : L R C LFE Ls Rs
  146. Sampling rate                            : 48.0 kHz
  147. Frame rate                               : 31.250 FPS (1536 SPF)
  148. Bit depth                                : 16 bits
  149. Compression mode                         : Lossy
  150. Stream size                              : 525 MiB (1%)
  151. Title                                    : Terminator.Salvation.2009.2160p.BluRay.REMUX.HEVC.DTS-HD.MA.5.1-FGT
  152. Language                                 : Hindi
  153. Service kind                             : Complete Main
  154. Default                                  : No
  155. Forced                                   : No

  156. Audio #7
  157. ID                                       : 8
  158. Format                                   : AC-3
  159. Format/Info                              : Audio Coding 3
  160. Commercial name                          : Dolby Digital
  161. Codec ID                                 : A_AC3
  162. Duration                                 : 1 h 54 min
  163. Bit rate mode                            : Constant
  164. Bit rate                                 : 640 kb/s
  165. Channel(s)                               : 6 channels
  166. Channel layout                           : L R C LFE Ls Rs
  167. Sampling rate                            : 48.0 kHz
  168. Frame rate                               : 31.250 FPS (1536 SPF)
  169. Bit depth                                : 16 bits
  170. Compression mode                         : Lossy
  171. Stream size                              : 525 MiB (1%)
  172. Title                                    : Terminator.Salvation.2009.2160p.BluRay.REMUX.HEVC.DTS-HD.MA.5.1-FGT
  173. Language                                 : Hungarian
  174. Service kind                             : Complete Main
  175. Default                                  : No
  176. Forced                                   : No

  177. Audio #8
  178. ID                                       : 9
  179. Format                                   : AC-3
  180. Format/Info                              : Audio Coding 3
  181. Commercial name                          : Dolby Digital
  182. Codec ID                                 : A_AC3
  183. Duration                                 : 1 h 54 min
  184. Bit rate mode                            : Constant
  185. Bit rate                                 : 640 kb/s
  186. Channel(s)                               : 6 channels
  187. Channel layout                           : L R C LFE Ls Rs
  188. Sampling rate                            : 48.0 kHz
  189. Frame rate                               : 31.250 FPS (1536 SPF)
  190. Bit depth                                : 16 bits
  191. Compression mode                         : Lossy
  192. Stream size                              : 525 MiB (1%)
  193. Title                                    : Terminator.Salvation.2009.2160p.BluRay.REMUX.HEVC.DTS-HD.MA.5.1-FGT
  194. Language                                 : Italian
  195. Service kind                             : Complete Main
  196. Default                                  : No
  197. Forced                                   : No

  198. Audio #9
  199. ID                                       : 10
  200. Format                                   : AC-3
  201. Format/Info                              : Audio Coding 3
  202. Commercial name                          : Dolby Digital
  203. Codec ID                                 : A_AC3
  204. Duration                                 : 1 h 54 min
  205. Bit rate mode                            : Constant
  206. Bit rate                                 : 640 kb/s
  207. Channel(s)                               : 6 channels
  208. Channel layout                           : L R C LFE Ls Rs
  209. Sampling rate                            : 48.0 kHz
  210. Frame rate                               : 31.250 FPS (1536 SPF)
  211. Bit depth                                : 16 bits
  212. Compression mode                         : Lossy
  213. Stream size                              : 525 MiB (1%)
  214. Title                                    : Terminator.Salvation.2009.2160p.BluRay.REMUX.HEVC.DTS-HD.MA.5.1-FGT
  215. Language                                 : Chinese
  216. Service kind                             : Complete Main
  217. Default                                  : No
  218. Forced                                   : No

  219. Audio #10
  220. ID                                       : 11
  221. Format                                   : AC-3
  222. Format/Info                              : Audio Coding 3
  223. Commercial name                          : Dolby Digital
  224. Codec ID                                 : A_AC3
  225. Duration                                 : 1 h 54 min
  226. Bit rate mode                            : Constant
  227. Bit rate                                 : 640 kb/s
  228. Channel(s)                               : 6 channels
  229. Channel layout                           : L R C LFE Ls Rs
  230. Sampling rate                            : 48.0 kHz
  231. Frame rate                               : 31.250 FPS (1536 SPF)
  232. Bit depth                                : 16 bits
  233. Compression mode                         : Lossy
  234. Stream size                              : 525 MiB (1%)
  235. Title                                    : Terminator.Salvation.2009.2160p.BluRay.REMUX.HEVC.DTS-HD.MA.5.1-FGT
  236. Language                                 : Polish
  237. Service kind                             : Complete Main
  238. Default                                  : No
  239. Forced                                   : No

  240. Audio #11
  241. ID                                       : 12
  242. Format                                   : DTS XLL
  243. Format/Info                              : Digital Theater Systems
  244. Commercial name                          : DTS-HD Master Audio
  245. Codec ID                                 : A_DTS
  246. Duration                                 : 1 h 54 min
  247. Bit rate mode                            : Variable
  248. Bit rate                                 : 2 483 kb/s
  249. Channel(s)                               : 6 channels
  250. Channel layout                           : C L R Ls Rs LFE
  251. Sampling rate                            : 48.0 kHz
  252. Frame rate                               : 93.750 FPS (512 SPF)
  253. Bit depth                                : 16 bits
  254. Compression mode                         : Lossless
  255. Stream size                              : 1.99 GiB (4%)
  256. Title                                    : Terminator.Salvation.2009.2160p.BluRay.REMUX.HEVC.DTS-HD.MA.5.1-FGT
  257. Language                                 : Spanish
  258. Default                                  : No
  259. Forced                                   : No

  260. Audio #12
  261. ID                                       : 13
  262. Format                                   : AC-3
  263. Format/Info                              : Audio Coding 3
  264. Commercial name                          : Dolby Digital
  265. Codec ID                                 : A_AC3
  266. Duration                                 : 1 h 54 min
  267. Bit rate mode                            : Constant
  268. Bit rate                                 : 640 kb/s
  269. Channel(s)                               : 6 channels
  270. Channel layout                           : L R C LFE Ls Rs
  271. Sampling rate                            : 48.0 kHz
  272. Frame rate                               : 31.250 FPS (1536 SPF)
  273. Bit depth                                : 16 bits
  274. Compression mode                         : Lossy
  275. Stream size                              : 525 MiB (1%)
  276. Title                                    : Terminator.Salvation.2009.2160p.BluRay.REMUX.HEVC.DTS-HD.MA.5.1-FGT
  277. Language                                 : Thai
  278. Service kind                             : Complete Main
  279. Default                                  : No
  280. Forced                                   : No

  281. Text #1
  282. ID                                       : 14
  283. Format                                   : UTF-8
  284. Codec ID                                 : S_TEXT/UTF8
  285. Codec ID/Info                            : UTF-8 Plain Text
  286. Duration                                 : 1 h 44 min
  287. Bit rate                                 : 32 b/s
  288. Count of elements                        : 816
  289. Stream size                              : 25.3 KiB (0%)
  290. Title                                    : English-SRT
  291. Language                                 : English
  292. Default                                  : Yes
  293. Forced                                   : No

  294. Text #2
  295. ID                                       : 15
  296. Format                                   : UTF-8
  297. Codec ID                                 : S_TEXT/UTF8
  298. Codec ID/Info                            : UTF-8 Plain Text
  299. Duration                                 : 1 h 46 min
  300. Bit rate                                 : 39 b/s
  301. Count of elements                        : 1073
  302. Stream size                              : 31.0 KiB (0%)
  303. Title                                    : English-SDH-SRT
  304. Language                                 : English
  305. Default                                  : No
  306. Forced                                   : No

  307. Text #3
  308. ID                                       : 16
  309. Format                                   : PGS
  310. Muxing mode                              : zlib
  311. Codec ID                                 : S_HDMV/PGS
  312. Codec ID/Info                            : Picture based subtitle format used on BDs/HD-DVDs
  313. Duration                                 : 1 h 44 min
  314. Bit rate                                 : 18.4 kb/s
  315. Count of elements                        : 1558
  316. Stream size                              : 13.8 MiB (0%)
  317. Title                                    : English-PGS
  318. Language                                 : English
  319. Default                                  : No
  320. Forced                                   : No

  321. Text #4
  322. ID                                       : 17
  323. Format                                   : PGS
  324. Muxing mode                              : zlib
  325. Codec ID                                 : S_HDMV/PGS
  326. Codec ID/Info                            : Picture based subtitle format used on BDs/HD-DVDs
  327. Duration                                 : 1 h 46 min
  328. Bit rate                                 : 23.5 kb/s
  329. Count of elements                        : 2145
  330. Stream size                              : 17.9 MiB (0%)
  331. Title                                    : English-SDH-PGS
  332. Language                                 : English
  333. Default                                  : No
  334. Forced                                   : No

  335. Text #5
  336. ID                                       : 18
  337. Format                                   : PGS
  338. Muxing mode                              : zlib
  339. Codec ID                                 : S_HDMV/PGS
  340. Codec ID/Info                            : Picture based subtitle format used on BDs/HD-DVDs
  341. Duration                                 : 1 h 44 min
  342. Bit rate                                 : 10.7 kb/s
  343. Count of elements                        : 1650
  344. Stream size                              : 8.02 MiB (0%)
  345. Title                                    : Arabic-PGS
  346. Language                                 : Arabic
  347. Default                                  : No
  348. Forced                                   : No

  349. Text #6
  350. ID                                       : 19
  351. Format                                   : PGS
  352. Muxing mode                              : zlib
  353. Codec ID                                 : S_HDMV/PGS
  354. Codec ID/Info                            : Picture based subtitle format used on BDs/HD-DVDs
  355. Duration                                 : 1 h 44 min
  356. Bit rate                                 : 15.5 kb/s
  357. Count of elements                        : 1634
  358. Stream size                              : 11.7 MiB (0%)
  359. Title                                    : Chinese-PGS
  360. Language                                 : Chinese
  361. Default                                  : No
  362. Forced                                   : No

  363. Text #7
  364. ID                                       : 20
  365. Format                                   : PGS
  366. Muxing mode                              : zlib
  367. Codec ID                                 : S_HDMV/PGS
  368. Codec ID/Info                            : Picture based subtitle format used on BDs/HD-DVDs
  369. Duration                                 : 1 h 35 min
  370. Bit rate                                 : 541 b/s
  371. Count of elements                        : 50
  372. Stream size                              : 379 KiB (0%)
  373. Title                                    : Chinese-PGS
  374. Language                                 : Chinese
  375. Default                                  : No
  376. Forced                                   : No

  377. Text #8
  378. ID                                       : 21
  379. Format                                   : PGS
  380. Muxing mode                              : zlib
  381. Codec ID                                 : S_HDMV/PGS
  382. Codec ID/Info                            : Picture based subtitle format used on BDs/HD-DVDs
  383. Duration                                 : 1 h 44 min
  384. Bit rate                                 : 15.4 kb/s
  385. Count of elements                        : 1634
  386. Stream size                              : 11.5 MiB (0%)
  387. Title                                    : Chinese-FORCED-PGS
  388. Language                                 : Chinese
  389. Default                                  : No
  390. Forced                                   : No

  391. Text #9
  392. ID                                       : 22
  393. Format                                   : PGS
  394. Muxing mode                              : zlib
  395. Codec ID                                 : S_HDMV/PGS
  396. Codec ID/Info                            : Picture based subtitle format used on BDs/HD-DVDs
  397. Duration                                 : 1 h 52 min
  398. Bit rate                                 : 15.1 kb/s
  399. Count of elements                        : 1600
  400. Stream size                              : 12.1 MiB (0%)
  401. Title                                    : Czech-PGS
  402. Language                                 : Czech
  403. Default                                  : No
  404. Forced                                   : No

  405. Text #10
  406. ID                                       : 23
  407. Format                                   : PGS
  408. Muxing mode                              : zlib
  409. Codec ID                                 : S_HDMV/PGS
  410. Codec ID/Info                            : Picture based subtitle format used on BDs/HD-DVDs
  411. Duration                                 : 1 h 52 min
  412. Bit rate                                 : 527 b/s
  413. Count of elements                        : 46
  414. Stream size                              : 436 KiB (0%)
  415. Title                                    : Czech-FORCED-PGS
  416. Language                                 : Czech
  417. Default                                  : No
  418. Forced                                   : No

  419. Text #11
  420. ID                                       : 24
  421. Format                                   : PGS
  422. Muxing mode                              : zlib
  423. Codec ID                                 : S_HDMV/PGS
  424. Codec ID/Info                            : Picture based subtitle format used on BDs/HD-DVDs
  425. Duration                                 : 1 h 44 min
  426. Bit rate                                 : 17.6 kb/s
  427. Count of elements                        : 1498
  428. Stream size                              : 13.2 MiB (0%)
  429. Title                                    : Danish-PGS
  430. Language                                 : Danish
  431. Default                                  : No
  432. Forced                                   : No

  433. Text #12
  434. ID                                       : 25
  435. Format                                   : PGS
  436. Muxing mode                              : zlib
  437. Codec ID                                 : S_HDMV/PGS
  438. Codec ID/Info                            : Picture based subtitle format used on BDs/HD-DVDs
  439. Duration                                 : 1 h 52 min
  440. Bit rate                                 : 17.5 kb/s
  441. Count of elements                        : 1526
  442. Stream size                              : 14.1 MiB (0%)
  443. Title                                    : Dutch-PGS
  444. Language                                 : Dutch
  445. Default                                  : No
  446. Forced                                   : No

  447. Text #13
  448. ID                                       : 26
  449. Format                                   : PGS
  450. Muxing mode                              : zlib
  451. Codec ID                                 : S_HDMV/PGS
  452. Codec ID/Info                            : Picture based subtitle format used on BDs/HD-DVDs
  453. Duration                                 : 1 h 44 min
  454. Bit rate                                 : 19.0 kb/s
  455. Count of elements                        : 1560
  456. Stream size                              : 14.2 MiB (0%)
  457. Title                                    : Estonian-PGS
  458. Language                                 : Estonian
  459. Default                                  : No
  460. Forced                                   : No

  461. Text #14
  462. ID                                       : 27
  463. Format                                   : PGS
  464. Muxing mode                              : zlib
  465. Codec ID                                 : S_HDMV/PGS
  466. Codec ID/Info                            : Picture based subtitle format used on BDs/HD-DVDs
  467. Duration                                 : 1 h 44 min
  468. Bit rate                                 : 16.5 kb/s
  469. Count of elements                        : 1510
  470. Stream size                              : 12.4 MiB (0%)
  471. Title                                    : Finnish-PGS
  472. Language                                 : Finnish
  473. Default                                  : No
  474. Forced                                   : No

  475. Text #15
  476. ID                                       : 28
  477. Format                                   : PGS
  478. Muxing mode                              : zlib
  479. Codec ID                                 : S_HDMV/PGS
  480. Codec ID/Info                            : Picture based subtitle format used on BDs/HD-DVDs
  481. Duration                                 : 1 h 52 min
  482. Bit rate                                 : 14.7 kb/s
  483. Count of elements                        : 1606
  484. Stream size                              : 11.9 MiB (0%)
  485. Title                                    : French-PGS
  486. Language                                 : French
  487. Default                                  : No
  488. Forced                                   : No

  489. Text #16
  490. ID                                       : 29
  491. Format                                   : PGS
  492. Muxing mode                              : zlib
  493. Codec ID                                 : S_HDMV/PGS
  494. Codec ID/Info                            : Picture based subtitle format used on BDs/HD-DVDs
  495. Duration                                 : 1 h 52 min
  496. Bit rate                                 : 697 b/s
  497. Count of elements                        : 44
  498. Stream size                              : 576 KiB (0%)
  499. Title                                    : French-FORCED-PGS
  500. Language                                 : French
  501. Default                                  : No
  502. Forced                                   : No

  503. Text #17
  504. ID                                       : 30
  505. Format                                   : PGS
  506. Muxing mode                              : zlib
  507. Codec ID                                 : S_HDMV/PGS
  508. Codec ID/Info                            : Picture based subtitle format used on BDs/HD-DVDs
  509. Duration                                 : 1 h 44 min
  510. Bit rate                                 : 19.8 kb/s
  511. Count of elements                        : 1760
  512. Stream size                              : 14.9 MiB (0%)
  513. Title                                    : German-PGS
  514. Language                                 : German
  515. Default                                  : No
  516. Forced                                   : No

  517. Text #18
  518. ID                                       : 31
  519. Format                                   : PGS
  520. Muxing mode                              : zlib
  521. Codec ID                                 : S_HDMV/PGS
  522. Codec ID/Info                            : Picture based subtitle format used on BDs/HD-DVDs
  523. Duration                                 : 1 h 17 min
  524. Bit rate                                 : 814 b/s
  525. Count of elements                        : 34
  526. Stream size                              : 463 KiB (0%)
  527. Title                                    : German-FORCED-PGS
  528. Language                                 : German
  529. Default                                  : No
  530. Forced                                   : No

  531. Text #19
  532. ID                                       : 32
  533. Format                                   : PGS
  534. Muxing mode                              : zlib
  535. Codec ID                                 : S_HDMV/PGS
  536. Codec ID/Info                            : Picture based subtitle format used on BDs/HD-DVDs
  537. Duration                                 : 1 h 44 min
  538. Bit rate                                 : 18.9 kb/s
  539. Count of elements                        : 1560
  540. Stream size                              : 14.2 MiB (0%)
  541. Title                                    : Greek-PGS
  542. Language                                 : Greek
  543. Default                                  : No
  544. Forced                                   : No

  545. Text #20
  546. ID                                       : 33
  547. Format                                   : PGS
  548. Muxing mode                              : zlib
  549. Codec ID                                 : S_HDMV/PGS
  550. Codec ID/Info                            : Picture based subtitle format used on BDs/HD-DVDs
  551. Duration                                 : 1 h 52 min
  552. Bit rate                                 : 14.6 kb/s
  553. Count of elements                        : 1652
  554. Stream size                              : 11.8 MiB (0%)
  555. Title                                    : Hindi-PGS
  556. Language                                 : Hindi
  557. Default                                  : No
  558. Forced                                   : No

  559. Text #21
  560. ID                                       : 34
  561. Format                                   : PGS
  562. Muxing mode                              : zlib
  563. Codec ID                                 : S_HDMV/PGS
  564. Codec ID/Info                            : Picture based subtitle format used on BDs/HD-DVDs
  565. Duration                                 : 1 h 52 min
  566. Bit rate                                 : 788 b/s
  567. Count of elements                        : 94
  568. Stream size                              : 651 KiB (0%)
  569. Title                                    : Hindi-FORCED-PGS
  570. Language                                 : Hindi
  571. Default                                  : No
  572. Forced                                   : No

  573. Text #22
  574. ID                                       : 35
  575. Format                                   : PGS
  576. Muxing mode                              : zlib
  577. Codec ID                                 : S_HDMV/PGS
  578. Codec ID/Info                            : Picture based subtitle format used on BDs/HD-DVDs
  579. Duration                                 : 1 h 52 min
  580. Bit rate                                 : 15.6 kb/s
  581. Count of elements                        : 1568
  582. Stream size                              : 12.6 MiB (0%)
  583. Title                                    : Hungarian-PGS
  584. Language                                 : Hungarian
  585. Default                                  : No
  586. Forced                                   : No

  587. Text #23
  588. ID                                       : 36
  589. Format                                   : PGS
  590. Muxing mode                              : zlib
  591. Codec ID                                 : S_HDMV/PGS
  592. Codec ID/Info                            : Picture based subtitle format used on BDs/HD-DVDs
  593. Duration                                 : 1 h 52 min
  594. Bit rate                                 : 746 b/s
  595. Count of elements                        : 62
  596. Stream size                              : 616 KiB (0%)
  597. Title                                    : Hungarian-FORCED-PGS
  598. Language                                 : Hungarian
  599. Default                                  : No
  600. Forced                                   : No

  601. Text #24
  602. ID                                       : 37
  603. Format                                   : PGS
  604. Muxing mode                              : zlib
  605. Codec ID                                 : S_HDMV/PGS
  606. Codec ID/Info                            : Picture based subtitle format used on BDs/HD-DVDs
  607. Duration                                 : 1 h 44 min
  608. Bit rate                                 : 20.7 kb/s
  609. Count of elements                        : 1640
  610. Stream size                              : 15.5 MiB (0%)
  611. Title                                    : Italian-PGS
  612. Language                                 : Italian
  613. Default                                  : No
  614. Forced                                   : No

  615. Text #25
  616. ID                                       : 38
  617. Format                                   : PGS
  618. Muxing mode                              : zlib
  619. Codec ID                                 : S_HDMV/PGS
  620. Codec ID/Info                            : Picture based subtitle format used on BDs/HD-DVDs
  621. Duration                                 : 1 h 17 min
  622. Bit rate                                 : 902 b/s
  623. Count of elements                        : 40
  624. Stream size                              : 513 KiB (0%)
  625. Title                                    : Italian-FORCED-PGS
  626. Language                                 : Italian
  627. Default                                  : No
  628. Forced                                   : No

  629. Text #26
  630. ID                                       : 39
  631. Format                                   : PGS
  632. Muxing mode                              : zlib
  633. Codec ID                                 : S_HDMV/PGS
  634. Codec ID/Info                            : Picture based subtitle format used on BDs/HD-DVDs
  635. Duration                                 : 1 h 44 min
  636. Bit rate                                 : 17.4 kb/s
  637. Count of elements                        : 1624
  638. Stream size                              : 13.1 MiB (0%)
  639. Title                                    : Lithuanian-PGS
  640. Language                                 : Lithuanian
  641. Default                                  : No
  642. Forced                                   : No

  643. Text #27
  644. ID                                       : 40
  645. Format                                   : PGS
  646. Muxing mode                              : zlib
  647. Codec ID                                 : S_HDMV/PGS
  648. Codec ID/Info                            : Picture based subtitle format used on BDs/HD-DVDs
  649. Duration                                 : 1 h 52 min
  650. Bit rate                                 : 14.4 kb/s
  651. Count of elements                        : 1512
  652. Stream size                              : 11.6 MiB (0%)
  653. Title                                    : Norwegian-PGS
  654. Language                                 : Norwegian
  655. Default                                  : No
  656. Forced                                   : No

  657. Text #28
  658. ID                                       : 41
  659. Format                                   : PGS
  660. Muxing mode                              : zlib
  661. Codec ID                                 : S_HDMV/PGS
  662. Codec ID/Info                            : Picture based subtitle format used on BDs/HD-DVDs
  663. Duration                                 : 1 h 52 min
  664. Bit rate                                 : 16.1 kb/s
  665. Count of elements                        : 1604
  666. Stream size                              : 13.0 MiB (0%)
  667. Title                                    : Polish-PGS
  668. Language                                 : Polish
  669. Default                                  : No
  670. Forced                                   : No

  671. Text #29
  672. ID                                       : 42
  673. Format                                   : PGS
  674. Muxing mode                              : zlib
  675. Codec ID                                 : S_HDMV/PGS
  676. Codec ID/Info                            : Picture based subtitle format used on BDs/HD-DVDs
  677. Duration                                 : 1 h 53 min
  678. Bit rate                                 : 15.7 kb/s
  679. Count of elements                        : 1598
  680. Stream size                              : 12.8 MiB (0%)
  681. Title                                    : Portuguese-PGS
  682. Language                                 : Portuguese
  683. Default                                  : No
  684. Forced                                   : No

  685. Text #30
  686. ID                                       : 43
  687. Format                                   : PGS
  688. Muxing mode                              : zlib
  689. Codec ID                                 : S_HDMV/PGS
  690. Codec ID/Info                            : Picture based subtitle format used on BDs/HD-DVDs
  691. Duration                                 : 1 h 17 min
  692. Bit rate                                 : 881 b/s
  693. Count of elements                        : 42
  694. Stream size                              : 501 KiB (0%)
  695. Title                                    : Portuguese-PGS
  696. Language                                 : Portuguese
  697. Default                                  : No
  698. Forced                                   : No

  699. Text #31
  700. ID                                       : 44
  701. Format                                   : PGS
  702. Muxing mode                              : zlib
  703. Codec ID                                 : S_HDMV/PGS
  704. Codec ID/Info                            : Picture based subtitle format used on BDs/HD-DVDs
  705. Duration                                 : 1 h 53 min
  706. Bit rate                                 : 18.4 kb/s
  707. Count of elements                        : 1660
  708. Stream size                              : 14.9 MiB (0%)
  709. Title                                    : Portuguese-FORCED-PGS
  710. Language                                 : Portuguese
  711. Default                                  : No
  712. Forced                                   : No

  713. Text #32
  714. ID                                       : 45
  715. Format                                   : PGS
  716. Muxing mode                              : zlib
  717. Codec ID                                 : S_HDMV/PGS
  718. Codec ID/Info                            : Picture based subtitle format used on BDs/HD-DVDs
  719. Duration                                 : 1 h 53 min
  720. Bit rate                                 : 17.5 kb/s
  721. Count of elements                        : 1620
  722. Stream size                              : 14.2 MiB (0%)
  723. Title                                    : Romanian-PGS
  724. Language                                 : Romanian
  725. Default                                  : No
  726. Forced                                   : No

  727. Text #33
  728. ID                                       : 46
  729. Format                                   : PGS
  730. Muxing mode                              : zlib
  731. Codec ID                                 : S_HDMV/PGS
  732. Codec ID/Info                            : Picture based subtitle format used on BDs/HD-DVDs
  733. Duration                                 : 1 h 52 min
  734. Bit rate                                 : 18.9 kb/s
  735. Count of elements                        : 1714
  736. Stream size                              : 15.2 MiB (0%)
  737. Title                                    : Russian-PGS
  738. Language                                 : Russian
  739. Default                                  : No
  740. Forced                                   : No

  741. Text #34
  742. ID                                       : 47
  743. Format                                   : PGS
  744. Muxing mode                              : zlib
  745. Codec ID                                 : S_HDMV/PGS
  746. Codec ID/Info                            : Picture based subtitle format used on BDs/HD-DVDs
  747. Duration                                 : 1 h 44 min
  748. Bit rate                                 : 18.3 kb/s
  749. Count of elements                        : 1650
  750. Stream size                              : 13.7 MiB (0%)
  751. Title                                    : Slovak-PGS
  752. Language                                 : Slovak
  753. Default                                  : No
  754. Forced                                   : No

  755. Text #35
  756. ID                                       : 48
  757. Format                                   : PGS
  758. Muxing mode                              : zlib
  759. Codec ID                                 : S_HDMV/PGS
  760. Codec ID/Info                            : Picture based subtitle format used on BDs/HD-DVDs
  761. Duration                                 : 1 h 44 min
  762. Bit rate                                 : 17.2 kb/s
  763. Count of elements                        : 1650
  764. Stream size                              : 12.9 MiB (0%)
  765. Title                                    : Slovenian-PGS
  766. Language                                 : Slovenian
  767. Default                                  : No
  768. Forced                                   : No

  769. Text #36
  770. ID                                       : 49
  771. Format                                   : PGS
  772. Muxing mode                              : zlib
  773. Codec ID                                 : S_HDMV/PGS
  774. Codec ID/Info                            : Picture based subtitle format used on BDs/HD-DVDs
  775. Duration                                 : 1 h 52 min
  776. Bit rate                                 : 16.1 kb/s
  777. Count of elements                        : 1572
  778. Stream size                              : 13.0 MiB (0%)
  779. Title                                    : Spanish-PGS
  780. Language                                 : Spanish
  781. Default                                  : No
  782. Forced                                   : No

  783. Text #37
  784. ID                                       : 50
  785. Format                                   : PGS
  786. Muxing mode                              : zlib
  787. Codec ID                                 : S_HDMV/PGS
  788. Codec ID/Info                            : Picture based subtitle format used on BDs/HD-DVDs
  789. Duration                                 : 1 h 52 min
  790. Bit rate                                 : 524 b/s
  791. Count of elements                        : 32
  792. Stream size                              : 433 KiB (0%)
  793. Title                                    : Spanish-PGS
  794. Language                                 : Spanish
  795. Default                                  : No
  796. Forced                                   : No

  797. Text #38
  798. ID                                       : 51
  799. Format                                   : PGS
  800. Muxing mode                              : zlib
  801. Codec ID                                 : S_HDMV/PGS
  802. Codec ID/Info                            : Picture based subtitle format used on BDs/HD-DVDs
  803. Duration                                 : 1 h 53 min
  804. Bit rate                                 : 17.3 kb/s
  805. Count of elements                        : 1618
  806. Stream size                              : 14.1 MiB (0%)
  807. Title                                    : Spanish-FORCED-PGS
  808. Language                                 : Spanish
  809. Default                                  : No
  810. Forced                                   : No

  811. Text #39
  812. ID                                       : 52
  813. Format                                   : PGS
  814. Muxing mode                              : zlib
  815. Codec ID                                 : S_HDMV/PGS
  816. Codec ID/Info                            : Picture based subtitle format used on BDs/HD-DVDs
  817. Duration                                 : 1 h 44 min
  818. Bit rate                                 : 16.7 kb/s
  819. Count of elements                        : 1572
  820. Stream size                              : 12.5 MiB (0%)
  821. Title                                    : Swedish-PGS
  822. Language                                 : Swedish
  823. Default                                  : No
  824. Forced                                   : No

  825. Text #40
  826. ID                                       : 53
  827. Format                                   : PGS
  828. Muxing mode                              : zlib
  829. Codec ID                                 : S_HDMV/PGS
  830. Codec ID/Info                            : Picture based subtitle format used on BDs/HD-DVDs
  831. Duration                                 : 1 h 44 min
  832. Bit rate                                 : 17.9 kb/s
  833. Count of elements                        : 1650
  834. Stream size                              : 13.4 MiB (0%)
  835. Title                                    : Thai-PGS
  836. Language                                 : Thai
  837. Default                                  : No
  838. Forced                                   : No

  839. Text #41
  840. ID                                       : 54
  841. Format                                   : PGS
  842. Muxing mode                              : zlib
  843. Codec ID                                 : S_HDMV/PGS
  844. Codec ID/Info                            : Picture based subtitle format used on BDs/HD-DVDs
  845. Duration                                 : 1 h 35 min
  846. Bit rate                                 : 1 005 b/s
  847. Count of elements                        : 92
  848. Stream size                              : 703 KiB (0%)
  849. Title                                    : Thai-FORCED-PGS
  850. Language                                 : Thai
  851. Default                                  : No
  852. Forced                                   : No

  853. Text #42
  854. ID                                       : 55
  855. Format                                   : PGS
  856. Muxing mode                              : zlib
  857. Codec ID                                 : S_HDMV/PGS
  858. Codec ID/Info                            : Picture based subtitle format used on BDs/HD-DVDs
  859. Duration                                 : 1 h 44 min
  860. Bit rate                                 : 18.9 kb/s
  861. Count of elements                        : 1634
  862. Stream size                              : 14.2 MiB (0%)
  863. Title                                    : Turkish-PGS
  864. Language                                 : Turkish
  865. Default                                  : No
  866. Forced                                   : No

  867. Menu
  868. 00:00:00.000                             : en:Chapter 01
  869. 00:04:10.667                             : en:Chapter 02
  870. 00:14:30.244                             : en:Chapter 03
  871. 00:21:08.016                             : en:Chapter 04
  872. 00:29:11.499                             : en:Chapter 05
  873. 00:34:24.896                             : en:Chapter 06
  874. 00:41:06.630                             : en:Chapter 07
  875. 00:50:15.721                             : en:Chapter 08
  876. 00:56:19.959                             : en:Chapter 09
  877. 01:06:19.183                             : en:Chapter 10
  878. 01:15:24.853                             : en:Chapter 11
  879. 01:22:50.548                             : en:Chapter 12
  880. 01:30:35.221                             : en:Chapter 13
  881. 01:34:55.481                             : en:Chapter 14
  882. 01:38:53.969                             : en:Chapter 15
  883. 01:42:43.657                             : en:Chapter 16
复制代码

终结者2018 Terminator.Salvation.2009.2160p.BluRay.REMUX.HEVC.DTS-HD.MA.5.1-FGT 49.40GB-2.png 202650q040pc5xlp2wg404.png 终结者2018 Terminator.Salvation.2009.2160p.BluRay.REMUX.HEVC.DTS-HD.MA.5.1-FGT 49.40GB-4.png







回复

使用道具 举报

发表于 2019-10-28 21:11:19 | 显示全部楼层
楼主发贴辛苦了,谢谢楼主分享!我觉得蓝光电影网是注册对了!
回复 支持 反对

使用道具 举报

发表于 2019-10-28 21:12:20 | 显示全部楼层
楼主发贴辛苦了,谢谢楼主分享!我觉得蓝光电影网是注册对了!
回复 支持 反对

使用道具 举报

发表于 2019-10-28 22:37:54 | 显示全部楼层

感谢楼主的无私分享!要想蓝光电影网好 就靠你我他
回复 支持 反对

使用道具 举报

发表于 2019-10-29 00:38:53 | 显示全部楼层

我看不错噢 谢谢楼主!蓝光电影网越来越好!
回复 支持 反对

使用道具 举报

发表于 2019-10-29 07:10:36 | 显示全部楼层

我看不错噢 谢谢楼主!蓝光电影网越来越好!
回复 支持 反对

使用道具 举报

发表于 2019-10-29 08:30:25 | 显示全部楼层
谢谢分享!!!!!!
回复

使用道具 举报

发表于 2019-10-29 08:31:14 | 显示全部楼层
楼主发贴辛苦了,谢谢楼主分享!我觉得蓝光电影网是注册对了!
回复 支持 反对

使用道具 举报

已抛锚 成长值: 250

发表于 2019-10-29 09:01:30 | 显示全部楼层

这个帖子不回对不起自己!我想我是一天也不能离开蓝光电影网
回复 支持 反对

使用道具 举报

发表于 2019-10-29 09:13:09 | 显示全部楼层
楼主辛苦了,非常感谢精彩分享。
回复 支持 反对

使用道具 举报

懒得打字嘛,点击右侧快捷回复 【右侧内容,后台自定义】
您需要登录后才可以回帖 登录 | 立即加入

本版积分规则

现在加入蓝光电影网,注册一个账号

QQ| 手机版|小黑屋| 蓝光电影网 |网站地图 

Copyright © 2015-2019 Comsenz Inc.  Template by 蓝光电影论坛 All Rights Reserved.

Powered by 蓝光电影网 X3.4

特别声明:本站所有资源均由网上收集而来,版权归原影音公司所有,如果侵犯了你的权益,请通知我们,我们会及时删除侵权内容.

快速回复 返回顶部 返回列表